&title=DANGANRONPA SUPER MIX
&artist=高田雅史
&first=0
&des=日向 創
&clock_count=4
&lv_5=13+
&inote_5=(128){1},
5h[4:15],,
4h[1:2],,
{4}6h[2:3],{64}B4,B5,,,{16},,,{4},{64}B4,B5,,,{16},,,
{4},{64}B4,B5,,,{16},,,{4},{64}B4,B5,,,{16},,,
{4}2<3[2:3],{64}B4,B5,,,{16},,,{4},{64}B4,B5,,,{16},,,
{4},{64}B4,B5,,,{16},,,{4},Ch[4:3],
,,8-5[8:1]*q5[8:1],,
{16}4b/6b,,82,,37,,6,5,,38,,5,6,,78,,
35,,17,,62,,3,4<1[16:3],,61,,4,2h[4:1],,,,
3x,,34,,26,,7,8,,15,,8,7,,16,,
2,4,3,,15,,{24}7/8,1,2,5>1[8:1],6,7,83,,,6h[8:1],,,,,,
{16}7/8x,,56,,37,,2,1,,47,,8,1>4[32:3],,78,,
16,,5,,37,,6,5>8[16:3],,38,,5,7h[4:1],,,,
6x,,35,,14,,8,7,,26,,7,8,,12,,
7,5,6,,84,,{24}2/1,8,7,4<8[8:1],3,2,16,,,4/3h[8:1],,,,,,
{16}2b/1b,,,,35,,5pp4[4:1],4,6,,{24}4,3,2,1hx[4:1],,,,,,
{16}4-8[32:3],,4,3,2-5-7[4:1],,1,,7p3[8:1]*q3[8:1],,,,,,,,
25,,5,4,6,,3qq5[4:1],4,1,,{24}5,6,7,8hx[4:1],,,,,,
{8}6V47[4:1],57,4,2,8v3[8:1]*p4[8:1],16,8x,,
{16}25,,1,,38,,6qq7[4:1],5,7,,{24}8,1,2,3hx[4:1],,,,,,
{16}1-6[8:1],,2,3,4-7[8:1],,3,2,1V35[8:1]*q5[8:1],,,,,,,,
78,,5,,34,,2pp8[4:1],1,4,,{24}8,7,6,5hx[4:1],,,,,,
{16}7-3[32:3],,86,,75,,4,4,1,3,7,5,8-4b[32:3],8,2,6,
8b/7h[4:1],,,,6V42[6:1],,7h[16:1],,8>6[4:1],,,,6V42[6:1],,7h[16:1],,
8>5[4:1],,,,5V31[6:1],,6h[16:1],,7p3[8:1],,,,7/8x,,,,
24,,8,,56,,7,7x,1-5[32:3],4x,3,8,1,,7,,
24,,8,,56,,7,7x,1-5[32:3],4x,3,8,1,,,,
8<3[4:1]/3,,,,3V57[6:1],,2h[16:1],,1<3[4:1],,,,3V57[6:1],,2h[16:1],,
1<4[4:1],,,,4V68[6:1],,3h[16:1],,2q6[8:1],,,,2/1xw5b[32:3],,,,
1b,,,,7,68,,45,,3,1>4[32:3]/2,,{24}7,8,7,1x,,,
{16}6,6,5x,7,1x,4,2,8x,3,3x,4,2,{32}5w1b[32:3],6,7,8,1,2,3,4,
{16}5b`B5f/B4/B6,,,,7x/8x,,6,45,,2,31,,{24}4/8v5[8:1],7,6,5<2[16:3]/2,,,
{16}7/8,,,,5x,,6,5/7,,21,,4,5>6b[24:5],2,6,,
E3f/B3/B2,,,,1x,,3,45,,7,68,,{24}1/5p1[8:1],2,3,47,,,
58,,,6,,,78,,,6,5,6,5p4[16:3],6,5,6,5,6,5x,,,,,,
8x-4[32:3],7,6,3,2,1,{16}78,,6,6,5-1[8:1],,67,,4h[4:1]/5,,,,
{24}8x-4[32:3],7,6,3,2,1,{16}78,,6,6,5p1[8:1],,34,,7h[4:1]/5,,,,
{24}1x-5[32:3],2,3,6,7,8,{16}21,,3,3,4,,31,,67,,{24}5/4-7[32:3],3,2,
{16}1-5b[32:3]/7,,4b,,1b,,8,8,2,6,4,7,1,5,3,8,
1b<5[8:1]/7b,1,4,2,1x/3,,4,4,,25,,7,68,,2-8[16:1],1,
4<8[8:1],5,2,,4,,{24}1,2,3,4v7[32:3]/1x>2-5[32:3],,,27,,,1/4<3b[24:5],,,,,,
{16}A6f/B6/E6/E7,,,,8x,,6,57,,8,2,1,3,1,3h[8:1],,
4,2,8,1q3[4:1],7,5,6,1,,7x,7x,,48,15,,,
{16}2b-8[16:1],8,4,5,26,,7-3[32:3],1,6,5,74,,1-5[32:3],5,3,7,
18,,6-3[32:3],4,7,8,61,,2z6b[8:1],5,4,7,2/8,,,,
{24}8b,5,8,5,8,5,8,5,8,4,7,4,7,4,7,4,7,4,7,4,7,4,7,4,
{16}6,6,{24}3,5,4,{16}7,7,{24}2,5,4,{16}8,8,1>4[32:3],5pp2b[16:13],3,7,1b,5b,
{1},,,E
