&title=贄-nie-
&artist=吉乃
&first=0
&des=Alpha-09 motor-angel
&clock_count=4
&lv_5=13+
&inote_5=(123)
{1},
{2},,
{2}4h[2:1],5h[2:1],
{16}3h[2:1],,,B4,,,B5,,6h[2:1],,,E5,,,B3,,
{16}2h[16:3],,3,3,
{4},
{16}7h[16:3],,6,6,,4-8[8:3],5,,
{4}1,,
{32}2,7,2,7,2,7,2,7,
{16}2,5,4,7,1b,,
{16}B6,B5,,A5,A4,A3,6b,,,B3,,E5,E6,E7,
{16}4,4,,4,5,,4,7h[2:1],3,3,,4,4,,2,2,
(246)
{8}1b-5[8:1]/8b,,7,7<4[8:1],,2,2-6[8:1],,1b/2b,,7,5,,
{8}3,4,2,1b/5b,,7,8,,6,5,7,8b/4b,,
{8}2,43,,7,65,,
{8}8b-4[8:1]/1b,,2,2>5[8:1],,7,7-3[8:1],,7b/8b,,2,4,,
{8}6,5,7,8b/4b,,2,1,,3,4,2,1b/5b,,
{8},28,,,
{4}46,3/7p3[4:3],,,2,2q6[4:3],,,8,8q1[4:3]*q1[4:3],,,4,4,
{8}5,6h[8:3],,,7<4[4:3],,8,,
{4},,3q8[4:3],
{8}2h[4:1],,,1h[4:1],,,1>5[2:1],,1,,
{2},
{8}7,6,7h[8:3],,,5h[8:3],,,4h[4:1],,
{4}2p6[4:3],,,8,7q3[4:3],,,4,5p4[4:3]*p4[4:3],,,6,7,
{8}8,1<5[4:3],,,2,,3>7[4:3]*>7[4:3],,
{4},,4,
{8}4pp8[4:3],,,3h[4:1],,,2h,,1-5[2:1],,
{4},,
{8}6,6,5,,,54,,,24,,
{8}1h[4:1],,8h[4:1],6h[8:1],,7h[8:1],5h[8:1],6h[8:1],3h[4:1],,4-8[4:1],24,,,
{8}1,1,8h[4:1],,
{8}2h[4:1],4h[8:1],,3h[8:1],6h[8:1],5h[8:1],7h[4:1],,1-5[4:1]*-5[4:1],26,,,
{8}7,8,4>1[4:1],,4,6q2[4:1],,6,3-8[4:1],,3/4<7[4:1],,4,1>4[4:1],,1,8,,
{8}3b/7b,15,,2b/6b,48,,3b-8[8:1]/7b-4[8:1],,3b/7b,,
{4},,,
{8}2-5[8:1]/6,,2,8-4[8:1],,8,1>4[8:1],,15,6V84<5-1[8:5],,5h[4:1],,,
{8}3h,,2-6[8:1],,2,8<5[8:1],,8,3p5>4-8b[8:5],,3/4h[4:1],,,6h[4:1],,,
{8}7-4[8:1],,71,,3,3/4-7[8:1]*-7[8:1],,,2-5[8:1],,28,,6,5-2[8:1]*-2[8:1]/6,,7,8-4[8:1],,
{8}18,,2,42,,7,57,,
{4}3b/6b,1b/8b,2b-5[8:1]/7b-4[8:1],7b/2b,
{8}3-8[8:1]/6,,3,7-3[8:1],,7/1p8[8:3],,,8<2[8:3],,,5h[8:3],,,
{8}1-5[8:1],,8-3[8:1]/1,,8,6-1[8:1],,6,5<4[8:3],,1h[8:3]/5,,,,,
{8}6,5/7v4[8:1],,3v8[8:1]/7,,3,4-8[8:1]b,,4,
{8}2v5[8:1],,2/6v1[8:1],,6,5-1[8:1]b,,5,7,,
{8}43,2,56,7,45,36,1s5[4:3]`8z4[4:3]*z4[4:3],,
{4},,,,
{32}E3,B3,B4,E5,5xh[8:5],,,,
{4},,
{32}E7,B6,B5,E5,4xh[8:1],,,,,E1,B1,B2,E3,3xh[8:5],,,
{4},,
{32}E1,B8,B7,E7,6xh[8:1],,,,
{4}1b,
{8}3,42,,6,75,,
{8}E2,E8,E4,E6,E3,E1,E5,E7,
(123)
{4}7<2[4:1]/2v5[8:1],2<5[4:1]/7,4-8[8:1]*-8[8:1],
{8}4,5,6<3[4:1],,3<8[4:1],,8v5<6[4:1],1,2,3,4>5[2:1],,,5,5-3-1-7[2:1]*-3-1-7[2:1],,,
{8}6z2b[4:1],6,,,,
{16}3,8,4,7,1,6,3,4,
{4}2>8[2:1]/5V31[8:1],25,8>4[4:1],
{8}4<5<6<7>8>1>2>3[4:1]*<5<6<7>8>1>2>3[4:1],5,6h[4:1],,
{8},4h[8:1],5h[8:1],6h[8:1],7-3[8:1],8,
{4}1>4b[8:1]/7,1<6[8:1],1-5[8:1]*-5[8:1],1,
{16}6,6,5,7,3,3,4,2,
{16}1bh[8:3]/5,5,,7,7,,6,6,
(246)
{8}3b/7b-4[8:1],,74,1-5[8:1],,18,7,7,2>6[8:1],,26,7q5[4:1],,7,1,2,3-8[8:1],,
{8}3,4-7[8:1],,4,2,2,8<5[8:1],,1,1-6[8:1],,4,4-8[8:1],,2bq6[8:1]/4b,,
{8}72,1-5[8:1],,1,3,3,4v7[8:1],,4,2p4[4:1],,2,8,7,6-1[8:1],,6,5-2[8:1],,5,7,8,
{32}12,3,4,5,
{4},
{32}78,6,5,4,
{4},1-5b[8:1]/5q7[1:2],1bq3[4:7]/5b,
