&title=悪霊
&artist=john
&first=0.03
&des=noka
&des_5=
&lv_5=13+
&inote_5=(166){4},{8}6,4/6h[4:1],,5-3[8:1],,,,5-3[8:1],
,,,2-4[8:1],,1-5[8:1],
,3V15[4:1],,,,8>3[8:1],,,,8>3[8:1],
,,,8s4[8:3],{4},,,{8}3,
4/2-8[8:1],,6,
,1/5-7[8:1],,4,,2-6[8:1],,7-3[8:1],
,8,,1,2,3h[4:1]/4-8[8:1],,,,6h[4:1]/5-1[8:1],
{4},{2}8qq4[2:1],
{8},,,2,2,3h[8:3]/4h[8:3],,,,6/4,
{16}7,5,7-3[8:1],4,7,3,{8}7b,,2h[8:1],
3h[8:1],4-2[8:1],,4/5,,8,7h[8:1],6h[8:1],
5,{16}3-5[8:1],4,2,4,{8}3,,8,8,7h[8:1],
6h[8:1],5-7[8:1],,5/4,,1,2h[8:1],3h[8:1],
4,{16}6-3[8:1],5,7,5,{8}6,,1b,1,2h[8:1],
4h[8:1],5>2[8:1],,6/5,,8,7h[8:1],5h[8:1],
4,{16}3<6[8:1],4,2,4,{8}3,,8,8,7h[8:1],
5h[8:1],4<7[8:1],,3/4,,1,2h[8:1],4h[8:1],
5,{16}6,5,7,5,{8}8,8,4-2[8:1],{4}4,
1-4[8:1],{8}8,8,,5-7[8:1],{4}5,
8-5[8:1],1h[8:1],{8},4-2[8:1],{4}4,
8-4[8:1],{8}2,2,2,5-7[8:1],{4}5,
1-5[8:1],8h[8:1],{8},6/5v8[8:1],{4}5,
7-4[8:1],{8}1,1,1,4v1[8:1],{4}4,
2-6[8:1],8h[8:1],{8},7V58[4:1],{4}7,
2>5[8:1],{8}1,1,1,3V52[4:1],{4}3,
7-3[8:1],7/1h[8:1],{8},4b/3h[4:1],,,,5/6h[4:1],
,,,4/2h[4:1],,,,5/7h[4:1],
,,,4/1h[4:1],,6,
,5/8h[4:1],,3,,4/2h[8:3],{4}6z2[8:3],
{2},{8}1,3b/4b,2,5/6,
7,2/4,3,5/7,6,1/4,2,5/8,
7,2/4,1,5/7,8,1/4,3,8/5,
6,2/4,4/3,7/5,6/5,2/4,{4}1-4[8:1]/5-8[8:1],
5/1,{8}2/6,4-1[8:1],,8b,,3/5-3[8:1],
4,7/5-7[8:1],6,3/5-3[8:1],4,5/8-4[8:1],,8/2-5[8:1],
,1/2,,7-3[8:1],7,2-4[8:1],,8-4[8:1],
8,3-5[8:1],,1-5[8:1],1,4-6[8:1],,8,
{4}8,{8}4,7-3[8:1],1/8,7b/3b,,1,
,2/4-2[8:1],3,6/4-6[8:1],5,4/1-5[8:1],,7-3[8:1]/1-3[8:1],
,1/7,,6,4,1b/2b,,7-3[8:1],
7,1-3[8:1],1,8qq4[2:1],{4}8,{8}3,3-1[8:1],
,,,5,3,6h[8:3]/5h[8:3],,,,3h[8:3]/4h[8:3],
,,,{16}6,5,6,4,6,3,
6,2,6,1,6,8,{8}6-1[8:1],,2b,,3h[8:1],
4h[8:1],5qq4[4:1],,6/5,,8,7h[8:1],6h[8:1],
5,{16}3V14[4:1],4,2,4,{8}3,,7,7,6h[8:1],
5h[8:1],4pp5[4:1],,3/4,,1,2h[8:1],3h[8:1],
4,{16}6V84[4:1],5,7,5,{8}6,,1,1,2h[8:1],
4h[8:1],5q3[4:1],,7/5,,8,7h[8:1],5h[8:1],
4,{16}3V15[4:1],4,2,4,{8}3,,8,8,7h[8:1],
5h[8:1],4p6[4:1],,2/4,,1,2h[8:1],4h[8:1],
5,3/6h[16:3],{16},4h[16:3],{8},7h[8:1],5-7[8:1],{4}5,
8v6[16:3],{8}1,1,,4-2[8:1],{4}4,
1v3[16:3],8h[8:1],{8},5-8[8:1],{4}5,
1v6[8:1],{8}2,2,2,4-1[8:1],{4}4,
8-4[8:1],7h[8:1],{8},3/4qq2[16:3],{4}4,
3v6[8:1],{8}8,8,8,5pp7[8:1],{4}5,
6-2[8:1],1h[8:1],{8},3V52[4:1],1,3,
{4}7<4[8:1],{8}8,8,8,6V47[4:1],{4}6,
2-5[8:1]*V48[4:1],2,{8},7b/6h[4:1],,,,2/3h[4:1],
,,,1/7h[4:1],,,,5/3h[4:1],
,,,5/8h[4:1],,3,
,4/1h[4:1],,6,,5/7h[8:3],{4}3s7[8:3],
{2},{8}8,6b/5b,7,4/3,
2,7/5,6,4/2,3,8/5,7,4/1,
2,7/5,8,4/2,1,8/5,6,1/4,
3,7/5,5/6,2/4,3/4,7/5,{4}8<5[8:1]/4>1[8:1],
4/8,{8}7/3,5-1[8:1],,1b,,6/4-7[8:1],
5,2/4-1[8:1],3,6/4-7[8:1],5,4/1-5[8:1],,8>3[8:1]/1<6[8:1],
,8/1,,1-5[8:1],1,7-4[8:1],,2-6[8:1],
2,8-5[8:1],,3-7[8:1],3,1-6[8:1],,2,
{4}2,{8}5,2-6[8:1],1/8,2b/6b,,8,
,7/5-8[8:1],6,3/5-2[8:1],4,5/8-4[8:1],,1>4[8:1]/8<5[8:1],
,8/1,,2,5,4b/7b,,2-6[8:1],
1,7-5[8:1],8,1pp5[2:1],{4}1,{8}6,6-8[8:1],
,,,4,6,3h[8:3]/4h[8:3],,,,6h[8:3]/5h[8:3],
,,,{16}3,4,3,5,3,6,
3,7,3,8,3,1,{24}3,4,5,6,7,8,5/1V35[4:1],,,,,,,,,,,,{8}6V85[4:1],
,5v4[16:3],4,{4},{8}2-5[8:1],
,6-1[8:1],7,3-5[8:1],2,8-4[8:1],,1/8,
{4}2q5[2:1],2/6,{2}8-4[8:1],
{8},7h[8:1],6h[8:1],5h[8:1],4h[8:1],2,2/1,3,
3/4,2,2/5,3,3/1,7,7/8,6,
5/6,7,7/5,6,6/8,2,3/5,7,
6/4,1,3/5,7,{16}1,6,1,6,2,5,3,4,
3,4,{8}3h[4:1],,1,,,,6h[4:1],
,5h[4:1],,4h[4:1],,1b-5[16:3],,,,1b-5[16:3],
,,,1b>4[8:1],,1b<6[8:1],
,1b,,2-6[8:1],2,8b-4[8:1],7,1-5[8:1],
1,7-3[8:1],6,8-4[8:1],8,6-2[8:1],5,1,
{4}1,{8}4,5/3>6[4:1],2/4,1b/3b,,4,
,1/5<8[8:1],7,1/5>2[8:1],3,5/1-5[8:1],,4>1[8:1]/1<6[8:1],
,4/1,,5,3,6b/2b,,1-4[8:1],
2,5-8[8:1],6,1pp6[2:1],{4}2,{8}5,5-8[8:1],
,,,1,7,6h[8:3]/4h[8:3],,,,3h[8:3]/1h[8:3],
,,,{16}8,4,8,3,8,2,
8,1,8,1,7,1,6,1,5,1,5,2,5,3,5,4,
5,4,6,4-8[8:1],7,4,{8}8,
E
