&title=eden
&artist="漆黒"の堕天使《Gram》†Versus† "聖刻"の熾天使《Gram》
&first=0
&des="漆黒"の堕天使《PθταTΘ》†Versus† "聖刻"の熾天使《PθταTΘ》
&lv_2=6
&lv_3=9
&lv_4=13+
&lv_5=14+
&inote_2=(246)
{1},,,,
{1}1,,,,8,,,,1h[1:1],,8h[1:1],,
{1}2-6[1:1],,7-3[1:1],,
{2}E1,E2,E3,E4,E5,E6,E7,E8,B8,B7,B6,B5,B4,B3,B2,B1,
{1}1>4[1:1],,8<5[1:1],,C1h[1:3],,,
{2},,1,2,3,4,5,6,7,8,1,2,3,4,5,6,7,8,
{2}2h[1:2],,,,7h[1:2],,,,3h[1:2],,,,6h[1:2],,,,
{1}C1f,,,,,
{4}1,,,2,,,3,,,4,,,8,,,7,,,6,,,5,,,1/8,,,2/7,,,3/6,,,4/5,,,E2/B1,,,E8/B8,,,E6/B5,,,E4/B4,,,
{1}C1h[1:3],,,,,,C1h[1:3],,,,,,
{2}1b,,,8b,,,3,,6,,5,,7,,2,,,,4h[1:3]/5h[1:3],,,,,,,,,4-8[1:1],,,5-1[1:1],,,,,,
{4}3,,,4,,,6,,,5,,,2bh[4:3],,,,,,8bh[4:3],,,,,,
{1}C1h[1:9],,,,,,,,,,,,
{2}1,1,2,2,3,3,4,4,5,5,6,6,7,7,8,8,7,7,6,6,5,5,4,4,3,3,2,2,1,1,1-4[2:1]b,,,8-5[2:1]b,,,4h[2:3],,,5h[2:3],,,,
{4},C1h[2:3],
E
&inote_3=(246)
{1},,,
{4}34,34,65,65,C1h[1:1],,,,,,,,,,,,
{8},3,,3x,6x,,6,,C1f,,,,,,,,,,,,,,,,,,,,,,,,
{4}4,4,5,5,2h[1:2],,,,,,,,7h[1:2],,,,,,,,1,,8,,2,,7,,3/6,,5/4,,3b,6b,2b,7b,
{4}2/6,2/6,2/6,2/6,3/7,3/7,3/7,3/7,4/8,4/8,4/8,4/8,3/7,3/7,3/7,3/7,4qq1[1:1],,,,,,8qq5>3[1:1],,,,,,1,1,1,1b,
{2}7h[2:1],6h[2:1],5h[2:1],4h[2:1],2h[2:1],3h[2:1],4h[2:1],5h[2:1],
{4}6-2[2:1],,,3-7[2:1],,,,,5b/4b,,,,18,18,27,,3,4,3,4,6,5,6,5,4v2-8[4:3],,,,5<8[8:5],,,,2,2,3,3,7,7,6,6,
{4}3h[4:1],6h[4:1],4h[4:1],5h[4:1],C1h[4:3],,,,8,8,1,1,7,7,2,2,6,6,3,3,5,5,4,4,E2,E3,E4,E8,E7,E6,C1h[2:1],,
{1},6-2[2:1],4h[2:9],,,,,
{4}A1,A4,,A6,A8,,E3,E6,,B4,B7,,C1,D2,,A5,E7,,2,2,,5,5,,7,7,,1,1,,3,3,,6,6,,4,4,,2,2,,3<7[1:1],,,,,,C1h[1:3],,,,,,,,,,,,,,,,,,,,,,,,
{1}4-1>3[1:3]/5-8<6[1:3],,,,
{4},,E8/E2,E7/E3,E6/E4,C1,,,4b-8>3[1:2],,,,,,,,,,,4,4,65,65,65,,5,5,43,43,43,,,3-7[2:1]/5-1[2:1],,,,,,6-2[2:1]/4-8[2:1],,,,,,3h[4:5],,,7h[2:1],,,2/6,5/1,5/1,5bx-8[8:3]/1bx-4[8:3],,,,
{4}E4,E3,E2,E1,E6,E7,E8,E1,C1f,,,4pp6[2:1]/5qq3[2:1],,,,,,2v5[2:1]/7v4[2:1],,,,,,4>5[4:9],,,,,,,,,,,,
{1}7z3s7[1:2]b,,,
{4}3,3,8,8,1,1,6,6,4,4,7,7,2,2,5,5,34,34,65,65,2,3,4,7,B2,D4,E6,A8,B7,D6,E4,D2,8,8,1,1,1h[2:3]/8h[2:3],,,,,,,,,,,,
{8}2h[2:1],,,,4,3,4,,5,,6/4,,5/7,,6/4,,5/7,,C1,,,,,,1>4[2:1],,,,,,,,,,,,8<5[2:1],,,,,,,,,,,,
{8}7h[2:1],,,,5,6,5,,4,,3/5,,4/2,,3/5,,4/2,,C1,,,,,,2-7[2:1]/4-6[2:1],,,,,,,,,,,,3/5-8[2:1],,,,,,,,,,,,
{8}1,8,1,,7,8,7,,2,1,2,,6,5,6,,3,4,3,,5,4,5,,2x,3x,4x,,7x,6x,5x,,1x,2x,3x,,8x,7x,6x,,E2,E3,E4,,E8,E7,E6,,
{4}4q5[2:1],,,,,,5p4[2:1],,,,,,4qq5[4:3]/5pp4[4:3],,,,,,2v3<5[4:3]/7v6>4[4:3],,,,,,
{8}2,7,,3,6,,4,5,,E2,E8,,E3,E7,,,,,4hb[1:3],
E
&inote_4=(246)
{1},,
{4}1h[2:1]/8h[2:1],,,,
{8}12,12,,87,87,,5h[8:1]/4h[8:1],,3bx/6bx,,4hx[8:1],6x,4hx[8:1],6x,4hx[8:1],6x,3hx[8:1],5x,3hx[8:1],5x,3hx[8:1],5x,3hx[8:1],5x,6hx[8:1],4x,6hx[8:1],4x,6hx[8:1],4x,6hx[8:1],4x,
{8}6hx[8:1],4b-8[8:1],,6b,6b-2[8:1],,1bh[4:1],,8b,,2h[8:1],4,3h[8:1],5,4h[8:1],6,5h[8:1],7,6h[8:1],8,7h[8:1],1,8h[8:1],2,1h[8:1],3,2,2,3,3,4,4,5,5-2V84[2:1],,,7x-4[8:1],,,,6hbx[1:1],,,,
{16}E2,E1,E8,E7,E6,E5,E4,E3,2hbx[1:1],,,,,,,,E8,E1,E2,E3,E4,E5,E6,E7,7hbx[1:1],,,,,,,,D2,D1,D8,D7,D6,D5,D4,D3,
{16}1hbx[1:1],,,,,,,,D8,D1,D2,D3,D4,D5,D6,D7,
{1}7x-4V62[4:3],1pp2v4-6[4:3],7-3-7>5[4:3],
{4}1b,2b,3b,4b/5b,
{8}1b/8b,,3,7,3,6,3,5,3,,3/4,2,34,5,34,2,34,,5,5,2,2,8,8,2,2x,3x,4x,5x,6x,7x,,
{8}1b/8b,,6,2,6,3,6,4,6,,6/5,7,65,4,65,7,65,,4,4,6,6,1,1,7b,,6b,,5b,,4b/3b,,
{8}1h[8:1]/2h[8:1],,2/1,,6h[8:1]/5h[8:1],,65,,8h[8:1]/7h[8:1],,7/8,,3h[8:1]/4h[8:1],,3/4,,1h[8:1]/2h[8:1],,38,,6h[8:1]/5h[8:1],,47,,8h[8:1]/7h[8:1],,16,,3h[8:1]/4h[8:1],,52,,
{8}1bx-5[8:1],,6bx>3[8:1],6,,2,2bx<7[8:1],,4bx>5[2:1],4,,,,,4h[1:1],,5hx[1:1],,,,,,,,1w5[8:3]b,,,,,,,,
{4}12,12,13,13,14,14,15,1<6[8:1]/5,
{8}5>2[8:1],,,8-5[8:1],,,3-8[8:1],,4-8[8:1],,3-8[8:1],,4-8[8:1],,3b,,2,1,2,3x,,5,4x/5x,,7,8,7,6x,,4,4x/5x,,
{8}2v5>3[4:1],,7v4<6[4:1],,,,2h[4:1],,
{6}8bx,7bx,6bx,5bx,2b,1b,
{8}8b/7x,,87,,86,,86,,85,,85,,84,,8>3[8:1]/4,,4<7[8:1],,,1-4[8:1],,,6-1[8:1],,5-1[8:1],,6-1[8:1],,5-1[8:1],,6b,,
{8}2,8,2,8,7/3,4x/6x,5x,,7,1,7,1,2/6,5x/3x,4x,,E6/E5/E4,,E8/E1/E2,,E6/E5/E4,,E8/E1/E2,,
{16}1x,2x,3x,,2x,3x,4x,,3x,4x,5x,,4xq5<6<7>8>1>2>3[1:3]b,5x,6x,,
{1}C1hf[2:9],,,,,
{8}3h[4:1]/5h[2:1],,,,4,6h[8:5],5h[4:1],,,,4h[4:1],5h[8:3],,,,,3/6,,B6/B3,,
{4}2,2>4[4:1],1,1,1>3[4:1],8,8,8>2[4:1],7,7,7>1[4:1],6,6,6<8[4:1],
{8}5h[4:1],,,,
{8}4h[2:1],5,6h[2:1],,,,3h[4:1],5h[8:3],,,,,73,,B7/B3,,
{4}7,7-5[4:1],8,8,8-6[4:1],1,1,1-7[4:1],2,2,2-8[4:1],3,3,3-1[4:1],5h[2:1],,
{8}4,3h[8:5],4h[8:5],,,,,,E3/E5,,E2/E6,,E1/E7,,7/8q5[8:3],,5,,6,,7p3[8:3],,8,,1,,2q7[8:3],,3,,4,,5p1[8:3],,
{8}6,,7,,8q5[8:3]*<4[8:3],,,,,,C1h[2:1],,,,B7h[4:3],,B2h[4:3],,,,,,,,D6,,E5,,A3,,6,,6>3[4:1],,1,,1,,1s5[2:3],,
{4}8,8,8,2,2,2,1b,,,
{8}4b/5b,,,,B2,B4,3hx[2:3],,,,E5,,A6,,B8,,D2,,C1f/B2,,,,5x,4x,E3/E5,,E4/E7,,D6/D8,,1b,,,,4x,5x,E7/E5,,E6/E3,,D4/D2,,8b,,,,,,
{8}8b/1b,,,,6,5,6hx[2:3],,,,E5,,A3,,B2,,D1,,C1f/B8,,,,3p7[4:1]/5q1[4:1],,,,,,4p7[4:1]/6q3[4:1],,,,,,4/5,,D3,,B4,,E6,,7b-3[8:1]b,,,,,,
{8}6>3[8:1],,,,1,1,8,8,,,E2,,E8,,
{16}E2,B2,B3,B4,E5,,,,C1f,,,,,,,,
{8}4,,3,,25,,2/5h[2:1],,C1h[8:3],,,,7h[4:1],,4,,
{16}7x/4x,6x/3x,5x/2x,4x/1x,8x-3[8:1]*-5[8:1],,,,,,,,,,,,,,,,
{8}3<6[8:1],,,,8,8,1,1,,,E8,,E2,,
{16}E8,B7,B6,B5,E5,,,,C1f,,,,,,,,
{8}5,,6,,74,,7h[8:3]/4,,C1h[8:3],,
{16}E7,B6,B5,E5,,,,,
{4}5/4,36,2-5[8:1]/7-4[8:1],,,,
{8}4h[8:1],6,4h[8:1],6,4h[8:1],6,3h[8:1],5,3h[8:1],5,3h[8:1],5,3h[8:1],5,6h[8:1],4,6h[8:1],4,6h[8:1],4,6bx,4bx,2b,8b,
{8}6bx/4bx,,5h[8:1],3,5h[8:1],3,5h[8:1],3,6h[8:1],4,6h[8:1],4,6h[8:1],4,6h[8:1],4,3h[8:1],5,3h[8:1],5,3bx,5bx,7b,1b,
{8}3bx/5bx,,3,3,5,5,4,4,6b,5b,3b,4b,C1,,6,6,4,4,5,5,4b,3b,5b,6b,C1,,E2,E6,E4,E8,E3,E7,E1,E5,B2,B6,C1h[2:1],,,,1w5[2:1],,,,,,,,
{8}5-1[8:1]/4-8[8:1],,,,2,3-1[8:1]/8-4[8:1],3/8,,,,
{16}2,3,4,,
{4}6-2[8:1],5-3[8:1],7-1[8:1],2b-6[8:1],,
{8}8<4q1[4:3],8,5,,4,,3,,2h[4:1],,,,2>6p1[4:3],2,1,,
{24}D1,A8,D8,A7,D7,,
{8},,5xp1[8:1],,2,,8b,,5-1[8:1]/4-8[8:1],,,,7,6-8[8:1]/1-5[8:1],6/1,,,,
{16}7,6,5,,
{8}3-7[8:1],,6-3[8:1],,8-3[8:1],,7b-3[8:1],,,,1>7[2:1],1,4h[4:1],,,,4>6[2:1],,7h[4:1],,,,,,3b/5,,6b/4,,2b/4,,7b/5q1[4:1]*p1[4:1],,,,,,
{16}2,,2,,2x,3,4,,7,,7,,7x,6,5,,
{8}2-4[8:1],2,7-5[8:1],7,1-3[8:1],1,8-6[8:1],8,
{24}A4,E4,E3,E2,A1,D1,A8,E8,E7,E6,A5,D5f,,,,,,,
{8}3,5,2-4[8:1],2,6-8[8:1],6,3-5[8:1],3,7-1[8:1],7,4-6[8:1],4,8-2[8:1],8,
{16}5x,4x,3x,2x,1x,8x,7x,6x,5x,4x,3x,2x,1x,8x,7x,6x,5x,4x,3x,2x,1x,,,,
{8}2/4,2/4,2/4,2/4,2/4,2/4,3b,3b,3b,,,,75,75,75,75,75,75,6b,6b,6b,,
{16}4,,4,,A3/A6/E6/B6/E7/D6,D3,A2,D2,A1,D1,A8,D8,A7,,,,A6/A3/D4/E4/B3/E3,D7,A7,D8,A8,D1,A1,D2,A2,,,,3,4,3,4,3,4,3,4,3b,,,,6,5,6,5,6,5,6,5,6b,,,,
{8}34,34,,56,56,,12,12,,78,78,,45,3b/6b,,,,,C1h[1:3]/B2h[1:3]/B3h[1:3]/B7h[1:3]/B6h[1:3],
E
&inote_5=(246)
{1},,C1h[4:3]/B7/B6/B4/B3,
{8}1,8,,8,1,,8-4[8:1],,2h[1:3]/8bx,,,,,,,,
{1}6h[1:2],,
{8},4,5,5,4,5,4-8[8:1],,4bx/7h[1:3],,,,,,,,
{1}3h[1:2],,
{8},4,4,5,3,2,4>6[2:3],,7/D4/A3/E4f,,6,,5,,5,,5,,5,,5,5,
{8}5<3[2:3],4,4/D6/A6/E6f,,4,,4,,4,,5,,6,,7,,8h[4:1],,
{4}1>4[8:1],B2/B3/E3,8<5[8:1],B7/B6/E7,4>1[8:1],E1/B8/B1,5<8[8:1],B5/B4/E5,
{4}2h[2:1],
{32}A4,E5,B5,B6,E7,,,,
{4}7hx[2:1],
{32}A5,E5,B4,B3,E3,,,,
{4}2bx-5[8:1],6b-1[8:1]b,3b-8[8:1],7b-4[8:1]b,1h[4:1],
{8}6,6,1,1,4,4,7,7,5,5,2,2,8,8,4,4h[8:1],6,6h[8:1],8,8h[8:1],2,2h[8:1],
{8}5,5h[4:1],7,7h[4:1],1,1h[4:1],3-5[8:1],3,
{8}2b,,6,4,2,4,6,4,2,4,6,3,5,7,5,3,
{6}2x/4x,3x/5x,4x/6x,5/7,4/6,3/5,
{4}2/4b-8[8:1],6/4b<7[8:1],2/4b>1[8:1],4/8bxw4[8:1],
{4}8,2/6,1>4[8:1]/5,1/B8/C1,5>2[8:1],5/C1/B2,1<6[8:1],1/C1/B4,
{4}5<8[8:1],5/8,1p5[8:1],1/4,4q8[8:1],2/4,5>2[8:1],6/5,
{8}8h[4:1],,1,2b/7b,,3/4,5b/2b,,5/6,7b/4b,C1,,1/5,,4>5[4:3],
{16}2,6,
{2}4h[2:1],
{16},,,,,4,3,2,
{2}1-5[8:1],1w5[8:1],
{16}8b/2b,,,,4-8[8:1],5,3,,6,,7h[8:3],,1,2,3,4,5b-1[8:1],,,,,8,7,6,5/2,3,4,5,
{16}7,,1/8,,2-5[8:1],,1-6[8:1],,2,,1,,8-3[8:1],,7-4[8:1],,8,,7,,8,1,2,3,4/8x,5,6,7,8/4x,1,2,3,4b/8bx,,,,
{16}1v6[8:1],8,7,6,1>5[16:3],,,,1,,,,8V61[4:1],1,2,3,4-8[8:1]/8,,,,4x,,,,5x,6,7,8,5x,4,3,2,
{8}8-5[8:1],7-3[8:1],8,7,4-2-6[4:1],,4x,8,
{6}1h[12:1],1h[12:1],8h[12:1]/4h[12:1],
{16}7/3,,6/2,,5/1,,,,1b/7b,,,,5-1[8:1],4,6,,3,,2h[8:3],,8,7,6,5,4b-8[8:1],,,,,1,2,3,4/7,6,5,4,
{16}2,,1/8,,7-4[8:1],,8-5[8:1],,7,,8,,1-4[8:1],,2-5[8:1],,1,,2,,1,8,7,6,5/1x,4,3,2,1/5x,8,7,6,5b/1bx,,,,
{16}8v3[8:1],1,2,3,8<4[16:3],,,,8,,,,1V37[4:1],8,7,6,5-1[8:1]/1,,,,5x,,,,4x,3,2,1,8/7,6,5,,
{16}3,4x,3,4x,2,5,2,5,1,6,1,6,8,7,,,
{32}8/6b,1,2,3,,,,,1/7b,2,3,4,,,,,2/8b,3,4,5,,,,,3/1b-6[8:1]*q4[4:3]b,4,5,6,,,,,
{4}1bx,,,,
{6}4,5,4,5,4,5,
{8}3,6,3,6,3,6,
{12}2,7,2,7,1,8,1,8,2x,7x,3x,6x,4x,5x,4x,
{16}B5,B4,B6,B3,B7,B2,B8,B1,
{2}C1f,
{8}6hx[4:1],,,,3,4,3<6[2:1],,,,1,8,7,,2/4,,B1/E6,,7h[2:1]/8,,1,,
{4}1>7[4:5],5,5,5<1[1:1],8,8,8>5[4:5],3,3,3<6[4:3],8,8,8,
{8}7h[4:1],,,,2,1,2<7[2:1],,,,6,5,4,,7/6,,E1/E5,,2h[2:1]/3,,4,,
{4}4<2[4:5],8,8,8>4[1:1],3,3,3<8[4:5],6,6,6<1[4:3],2,2,2,
{8}3h[2:1],,,,4,5,6h[2:1],,,,E8,C1,E4,,2x/E5,,3x/E6,,4/C1h[2:1],,
{4}4,4V28-6[8:9],A2,A1,8V64-2[4:5],B6,A5,4V28[1:1],B2,A1,6v3[4:1],,,,
{8}6hx[2:1],,,,5,4,3h[2:1],,,,E2,C,E6,,5/B3,,5/D2,,5/E1h[2:1],,
{4}4,4V68[2:1],1,1,1V35[2:1]b,6,6,6V82[2:1],E4,E5,E6,2b-7[8:1]/6b-3[8:1],,,
{8}3bh[8:3]/8bh[8:3],,,,2,1,3bh[8:3]/8bh[8:3],,,,2h,1h,3bh[4:1],,4bh[4:1],,5bh[4:1],,6bh[4:1],,,,1,8,
{8}2bh[4:1],,4bh[4:1],,5bh[4:1],,7bh[4:1],,,,8,7,1bh[4:1],,6bh[4:1],,
{16}3,4,3,4,2bhx[2:1]/5bhx[2:1],,,,,,,,,,,,
{8}1bh[8:3]/6bh[8:3],,,,7,8,1bh[8:3]/6bh[8:3],,,,7h,8h,6bh[4:1],,5bh[4:1],,4bh[4:1],,3bh[4:1],,,,8,1,
{8}7bh[4:1],,5bh[4:1],,4bh[4:1],,2bh[4:1],,6-2[8:1],,6/4v1[8:1]*v7[8:1],,4b,,2x/6x,,2V47[4:1]/6V83[4:1],,2b/6b,,,,,,
{4}3x/C1f,E2/3,E1/3,E8/2,E7/1,E6/8,E5/7,E4/6,5/E3,E2/4,5/E3,E4/6,7/E5,E6/8,E7/1,E8/2,
{4}1x/8x,1x/8x,C1/E2/D2,C1/D4/E4,C1/D6/E6,C1/D8/E8,
{32}A3,D4,A4,,A6,D6,A5,,A1,D2,A2,,A8,D8,A7,,
{4}4bx>6<4[1:2],A5,E3/B2,E1/B8,E7/B6,4,5,6,7,8h[4:1],
{32}A2,E3,B3,,,,,,A7,E7,B6,,,,,,
{8}2/4,,3,3,3,,7/5,,6,6,6,,1/3,2,1,2,1,,8/6,7,8,7,8,,
{8}6,5,5,6,4,4,6,3,3,6,5,4,3,2,3,4,5,6,7,6,B7f,5,B2f,4,
{8}3b,4,4,3,5,5,3,6,6,3,4,5,6,7,6,5,4,3,2,3,B2f,4,B7f,5,
{8}6b,5,5,6,4,4,5,3,B2f,4,B7f,5,6b,3,5,5,4,6,6,5,B7f,4,B2f,3,E1,2,E8,1,E7,8,E6,1,1,4/1,4/1,4/1,4hx[2:1]/1hx[4:3],,,,,,
{24}4,5,6,7,8,1,2,3,4,5,6,7,8,1,2,3,4,5,
{16}6-1[8:1]/1-5[8:1],,,,6b/1b,,,,8/4,,8/4,3/7,6/2,1/5,8-4[8:1]/4,,,,,,7-3[8:1],6,5,,7<4[8:1]/B7f,,,,
{16}7>2[8:1]/A6f,,,,7b,,,,3x,2x/4x,1/5,6/8,7b,,,,
{24}D2,D3,D4,D5,,,
{16}8,,,,8/2,3,4,5,7>4[4:1],6,5,4,7x/B3f,,,,,,,,
{24}D8,D7,D6,D5,,,
{16}1,,,,1/7,6,5,4,2<5[4:1],3,4,5,2x/B6f,,,,
{32}A1,E2,E3,A3,,,,,4x,,5,,6,,7,,
{16}3-8[8:1]/8-4[8:1],,,,3b/8b,,,,1/5,,1/5,2/6,3/7,4/8,1-5[8:1]/5,,,,,,2-6[8:1],3,4,,2>5[8:1]/B2f,,,,
{16}2<7[8:1]/A3f,,,,2b,,,,6x,5x/7x,4/8,3/1,2b,,,,8b/2,3,4,5,6,8,1,2,3/1,4,5,6,1,,,,1/7,6,5,4,3,1,8,7,6,5,4,3,
{8}8bh,7,6/2,3,4bh/1,8,7/2,3,4bh/1,8,7/2b,,
{16}1-4[8:1],,8,,1-5[8:1],,7,6,5/1-3[8:1],,8,7,6/1q6[8:1],,4x,,1,,,,8h[4:1],D5,D4,D3,1x-5[8:1],,1x,,8-4[8:1],,8,,
{16}2-5[8:1],,2,,6>2[8:1],,6,,,,,,
{32}D5,A4,D4,A3,D3,A2,D2,A1,
{16}8x-5[8:1]b,,1x,,8-4[8:1]b,,2,3,4/8-6[8:1]b,,1,2,3/8-4[8:1]b,,,,2,,,,1,,,,
{16}1bx,2,3,4,5bx/B2,6,7,8,1bx/B6,,,,7bx,6,5,4,3bx/B1,2,1,8,7bx/B5,,,,
{16}5x,6x,5,6,4,7,4,7,3,8,3,8,2-6-8[4:1],,,,8-2[8:1],,,,,,,,4,3x,4,3x,5,2,5,2,6-2[8:1],,2-6[8:1],,6<4[4:1]b,,,,,,,,,,,,
{24}1,2,3,4,5,6,7/4x,8,1,2,3,4,5h[2:1],,,,,,A8/B8,A7/B7,A6/B6,B5,A4/B4,A3/B3,A2/B2,A1/B1,D1/E1,D8/E8,D7/E7,E6,E5f,4hx[24:29],,,,,
{24}1,2,3,,5,6,7,8,1,2,3,,5,6,7,8,1,2,3,,5,6,7,8,1,2,3,
{24}B4,C1,B8,
{8}A8f,,2-5-7[4:1],2,,8-4-2[4:1],8,,1-5-7[4:1],1,,8-3-5[4:1],8,,1-6-4[4:1],1,,,,,2b/7b<8[8:27],,
{4},,,,,,,,,,,4z8[4:1]b,
E
