&title=こちら、幸福安心委員会です。
&artist=うたたP; 初音ミク
&first=0
&des=sdvx国际吧友2
&lv_5=13+
&lv_7=抚
&inote_5=(128){1},
{4}7h[1:1]/1bs5[4:1],,,
{8},6,
{16}6h[8:1],,,8h[8:1]/5h[8:1],,,8/5,,
1h[8:1]/2h[8:1],,,1h[8:1]/8h[8:1],,,8/7,,
1bs5[4:1]/6h[1:1],
,,,,,,,,,,,,,,,
4h[16:3],,,6,5,,7/8,,1h[8:1]/2h[8:1],,,8h[8:1]/6h[8:1],,,8/6,,
{8}1bs5[4:1]/5,,6,,7,7,8>3[8:1],,
8z4[4:1],,3,,{16}2h[8:1],,,6h[8:1]/4h[8:1],,,7/5,,
{8}8z4[4:1]/4,,3,,2,2,1<6[8:1],,
1s5[4:1],5,6,7,{32}8>8[32:8],1>8[32:7],2>8[32:6],3<8[32:5],4<8[32:4],5<8[32:3],6<8[16:1],7,,,,,,,,,
{16}1<6[8:1],,,,1>4[8:1]/3,,,,1s5[4:1],6,6,,7,,7,,
8-4[8:1],,2,1,8>3[8:1],7,6,,5w1[8:1],6,7,,5,,,,
8<5[8:1],,3,2,1>4[8:1],,8,,5>2[8:1],6,7,,5/8,,,,
8>3[8:1],,5,6,7<4[8:1],,4<7[8:1],,7-3[8:1],8,1,2,3b,,,,
1>4[8:1],,6,7,8<5[8:1],,1,,4<7[8:1],3,2,,4/1,,,,
8<5[8:1],,3,2,1>4[8:1],,8,,5>2[8:1],6,7,,5/8,,,,
1>4[8:1],,6,7,8<5[8:1],,1,,4-8[8:1],2,8-4[8:1],,4/2,,,,
2,2,3,3,4,4,5,5,6-2[8:1],7,8,1,2b,,,,
1-5[8:1],,7,8,1<6[8:1],2,3,,5>1[4:1],4>1[16:3],3>1[8:1],,5,,,,
8-4[8:1],,2,1,8>3[8:1],7,6,,4<8[4:1],5<8[16:3],6<8[8:1],,4,,,,
1-5[8:1],,7,8,1<6[8:1],2,3,,5>1[4:1],4>1[16:3],3>1[8:1],,5,,,,
8<1[16:7],7<1[16:6],6>1[16:5],5>1[16:4],8,1,2,,8<4[32:8],7<4[32:6],6>4[32:4],,8,,,,
1s5[8:1],,7,8,1<6[8:1],2,3,,5>1[4:1],4>1[16:3],3>1[8:1],,5,,,,
8z4[8:1],,2,1,8>3[8:1],7,6,,4<8[4:1],5<8[16:3],6<8[8:1],,4,,,,
1s5[8:1],,7,8,1<6[8:1],2,3,,5>1[4:1],4>1[16:3],3>1[8:1],,5,,,,
8<1[16:7],7<1[16:6],6>1[16:5],5>1[16:4],1,2,3,,8<4[32:8],7<4[32:6],6>4[32:4],,8,,,,
1>4[8:1],,8/7,,5,6,7,8,1<6[8:1],,5>2[8:1],,1-5[8:1],,5,,
1,,2h[4:1],,4,5,6,7,8-5[8:1]*-3[8:1],,1/7,,,,,,
8<5[8:1],,1/2,,4,3,2,1,8>3[8:1],,4<7[8:1],,8-4[8:1],,4,,
8,,7h[4:1],,5,4,3,2,1w5[8:1],,8/2,,,,,,
1<6[8:1]/2,,3/4,,5,4,3,2,1>4[8:1],,5<8[8:1],,1-5[8:1],,5,,
1>4[8:1],,7,,5<1[16:4],6<1[16:3],7>1[16:2],8,2>5[8:1],,2,,,,,,
8>3[8:1]/7,,6/5,,4,5,6,7,8<5[8:1],,4>1[8:1],,8-4[8:1],,4,,
8<5[8:1],,2,,4,3,2,1s5[16:3],8z4[8:1],,2/7,,,,,,
{4}2/8bz4[4:1],,,
{8},3,
{16}3h[8:1],,,1h[8:1]/4h[8:1],,,1/4,,
8h[8:1]/7h[8:1],,,8h[8:1]/1h[8:1],,,1/2,,
8bz4[4:1]/3h[1:1],
,,,,,,,,,,,,,,,
5h[16:3],,,3,4,,2/1,,8h[8:1]/7h[8:1],,,1h[8:1]/3h[8:1],,,1/3,,
{8}8bz4[4:1]/4,,3,,2,2,1<6[8:1],,
1s5[4:1],,6,,{16}7h[8:1],,,3h[8:1]/5h[8:1],,,2/4,,
{8}1s5[4:1]/5,,6,,7,7,8>3[8:1],,
8z4[4:1],4,3,2,{16}1bs5[8:1]*s5[8:1],1b,1b,1b,,,,,
1-5[8:1],,7,8,1V35[8:1],,2,,1V75[8:1],,7,8,1,,2,,
8-4[8:1],,2,1,8V64[8:1],,7,,8V24[8:1],,2,1,8,,7,,
4-8[8:1],,6,5,4V28[8:1],,3,,4V68[8:1],,6,5,4,,3,,
5-1[8:1],,3,4,5V71[8:1],,6,,5V31[8:1],,3,4,5,,6,,
1s5[8:1],,3,2,1V75[8:1],,7,,1V35[8:1],,3,2,1,,6,,
8z4[8:1],,6,7,8V24[8:1],,2,,8V64[8:1],,6,7,8,,3,,
4z8[8:1],,2,3,4V68[8:1],,6,,4V28[8:1],,2,3,4,,7,,
5s1[8:1],,7,6,5V31[8:1],,3,,5V71[8:1],,7,6,5,,2,,
3>1[16:2],,1<7[16:2],,7<3[4:1],6>3[16:3],5>3[16:2],,1,1,,8,8,,6,,
7<5[16:2],,5>3[16:2],,3>7[4:1],2<7[16:3],1<7[16:2],,5,5,,4,4,3,2,1,
8<5[16:3],,6>4[16:2],,4>8[4:1],3>8[16:3],2<8[8:1],,7,7,,6,6-2[8:1],,5,,
6<1[16:3],,8>2[16:2],,2>6[4:1],3<6[16:3],4<6[8:1],,7,7,,8,8,,1,,
1>8[16:7],2>8[16:6],3<8[16:5],4<8[16:4],1,8,7,6,1>8[16:7],2>8[16:6],3<8[16:5],4<8[16:4],1,8,7,6,
1-5[8:1],,2,2-6[16:2],,3,,2,,7,,5<1[16:4],6<1[16:3],7>1[16:2],8,,
2-6[8:1],,3,3-7[8:1],,4,,3,,8,,8<4[16:4],7<4[16:3],6>4[16:2],5,,
3,2,1,8,3>7[4:1],2<7[16:3],1<7[16:2],8,
6>2[4:1],5>2[16:3],4>2[8:1],3-7[16:1],,,,,,,,,E
&inote_6=(128){1},
{4}7h[1:1]/1bs5[4:1],,,
{8},6,
{16}6h[8:1],,,8h[8:1]/5h[8:1],,,8/5,,
1h[8:1]/2h[8:1],,,1h[8:1]/8h[8:1],,,8/7,,
1bs5[4:1]/6h[1:1],
,,,,,,,,,,,,,,,
4h[16:3],,,6,5,,7/8,,1h[8:1]/2h[8:1],,,8h[8:1]/6h[8:1],,,8/6,,
{8}1bs5[4:1]/5,,6,,7,7,8>3[8:1],,
8z4[4:1],,3,,{16}2h[8:1],,,6h[8:1]/4h[8:1],,,7/5,,
{8}8z4[4:1]/4,,3,,2,2,1<6[8:1],,
1s5[4:1],5,6,7,{32}8,1,2,3,4,5,6,7>8[16:1],,,,,,,,,
{16}1<6[8:1],,,,1>4[8:1]/3,,,,1s5[4:1],6,6,,7,,7,,
8-4[8:1],,2,1,8>3[8:1],7,6,,5w1[8:1],6,7,,5,,,,
8<5[8:1],,3,2,1>4[8:1],,8,,5>2[8:1],6,7,,5/8,,,,
8>3[8:1],,5,6,7<4[8:1],,4<7[8:1],,7-3[8:1],8,1,2,3b,,,,
1>4[8:1],,6,7,8<5[8:1],,1,,4<7[8:1],3,2,,4/1,,,,
8<5[8:1],,3,2,1>4[8:1],,8,,5>2[8:1],6,7,,5/8,,,,
1>4[8:1],,6,7,8<5[8:1],,1,,4-8[8:1],2,8-4[8:1],,4/2,,,,
2,2,3,3,4,4,5,5,6-2[8:1],7,8,1,2b,,,,
1-5[8:1],,7,8,1<6[8:1],2,3,,5,4,3>1[8:1],,5,,,,
8-4[8:1],,2,1,8>3[8:1],7,6,,4,5,6<8[8:1],,4,,,,
1-5[8:1],,7,8,1<6[8:1],2,3,,5,4,3,,5,,,,
8,7,6,5,1,2,3>1[8:1],,8,7,6,,8,,,,
1s5[8:1],,7,8,1<6[8:1],2,3,,5,4,3>1[8:1],,5,,,,
8z4[8:1],,2,1,8>3[8:1],7,6,,4,5,6<8[8:1],,4,,,,
1s5[8:1],,7,8,1<6[8:1],2,3,,5,4,3>1[8:1],,5,,,,
8,7,6,5,1,2,3>1[8:1],,8,7,6>4[32:4],,8,,,,
1>4[8:1],,8/7,,5,6,7,8,1<6[8:1],,5>2[8:1],,1-5[8:1],,5,,
1,,2h[4:1],,4,5,6,7,8-5[8:1]*-3[8:1],,1/7,,,,,,
8<5[8:1],,1/2,,4,3,2,1,8>3[8:1],,4<7[8:1],,8-4[8:1],,4,,
8,,7h[4:1],,5,4,3,2,1w5[8:1],,8/2,,,,,,
1<6[8:1]/2,,3/4,,5,4,3,2,1>4[8:1],,5<8[8:1],,1-5[8:1],,5,,
1>4[8:1],,7,,5,6,7,8>1[16:1],2>5[8:1],,2,,,,,,
8>3[8:1]/7,,6/5,,4,5,6,7,8<5[8:1],,4>1[8:1],,8-4[8:1],,4,,
8<5[8:1],,2,,4,3,2,1s5[16:3],8z4[8:1],,2/7,,,,,,
{4}2/8bz4[4:1],,,
{8},3,
{16}3h[8:1],,,1h[8:1]/4h[8:1],,,1/4,,
8h[8:1]/7h[8:1],,,8h[8:1]/1h[8:1],,,1/2,,
8bz4[4:1]/3h[1:1],
,,,,,,,,,,,,,,,
5h[16:3],,,3,4,,2/1,,8h[8:1]/7h[8:1],,,1h[8:1]/3h[8:1],,,1/3,,
{8}8bz4[4:1]/4,,3,,2,2,1<6[8:1],,
1s5[4:1],,6,,{16}7h[8:1],,,3h[8:1]/5h[8:1],,,2/4,,
{8}1s5[4:1]/5,,6,,7,7,8>3[8:1],,
8z4[4:1],4,3,2,{16}1bs5[8:1]*s5[8:1],1b,1b,1b,,,,,
1-5[8:1],,7,8,1V35[8:1],,2,,1V75[8:1],,7,8,1,,2,,
8-4[8:1],,2,1,8V64[8:1],,7,,8V24[8:1],,2,1,8,,7,,
4-8[8:1],,6,5,4V28[8:1],,3,,4V68[8:1],,6,5,4,,3,,
5-1[8:1],,3,4,5V71[8:1],,6,,5V31[8:1],,3,4,5,,6,,
1s5[8:1],,3,2,1V75[8:1],,7,,1V35[8:1],,3,2,1,,6,,
8z4[8:1],,6,7,8V24[8:1],,2,,8V64[8:1],,6,7,8,,3,,
4z8[8:1],,2,3,4V68[8:1],,6,,4V28[8:1],,2,3,4,,7,,
5s1[8:1],,7,6,5V31[8:1],,3,,5V71[8:1],,7,6,5,,2,,
3>1[16:2],,1<7[16:2],,7,6,5>3[16:2],,1,1,,8,8,,6,,
7<5[16:2],,5>3[16:2],,3,2,1<7[16:2],,5,5,,4,4,3,2,1,
8<5[16:3],,6>4[16:2],,4,3,2<8[8:1],,7,7,,6,6-2[8:1],,5,,
6<1[16:3],,8>2[16:2],,2,3,4<6[8:1],,7,7,,8,8,,1,,
1,2,3,4,1,8,7,6<8[256#4:1],1,2,3,4,1,8,7,6<8[256#4:1],
1-5[8:1],,2,2-6[16:2],,3,,2,,7,,5,6,7,8>1[16:1],,
2-6[8:1],,3,3-7[8:1],,4,,3,,8,,8,7,6,5>4[16:1],,
3,2,1,8,3,2,1,8<7[16:1],
6,5,4,3-7[16:1]*>2[16:1],,,,,,,,,E
&inote_7=(128){1},
{4}7h[1:1]/1bs5[4:1],,,
{8},6,
{16}6h[8:1],,,8h[8:1]/5h[8:1],,,8/5,,
1h[8:1]/2h[8:1],,,1h[8:1]/8h[8:1],,,8/7,,
1bs5[4:1]/6h[1:1],
,,,,,,,,,,,,,,,
4h[16:3],,,6,5,,7/8,,1h[8:1]/2h[8:1],,,8h[8:1]/6h[8:1],,,8/6,,
{8}1bs5[4:1]/5,,6,,7,7,8>3[8:1],,
8z4[4:1],,3,,{16}2h[8:1],,,6h[8:1]/4h[8:1],,,7/5,,
{8}8z4[4:1]/4,,3,,2,2,1<6[8:1],,
1s5[4:1],5,6,7,{32}8>8[32:8],1>8[32:7],2>8[32:6],3<8[32:5],4<8[32:4],5<8[32:3],6<8[16:1],7,,,,,,,,,
{16}1<6[8:1],,,,1>4[8:1]/3,,,,1s5[4:1],6,6,,7,,7,,
8-4[8:1],,2,1,8>3[8:1],7,6,,5w1[8:1],6,7,,5,,,,
8<5[8:1],,3,2,1>4[8:1],,8,,5>2[8:1],6,7,,5/8,,,,
8>3[8:1],,5,6,7<4[8:1],,4<7[8:1],,7-3[8:1],8,1,2,3b,,,,
1>4[8:1],,6,7,8<5[8:1],,1,,4<7[8:1],3,2,,4/1,,,,
8<5[8:1],,3,2,1>4[8:1],,8,,5>2[8:1],6,7,,5/8,,,,
1>4[8:1],,6,7,8<5[8:1],,1,,4-8[8:1],2,8-4[8:1],,4/2,,,,
2,2,3,3,4,4,5,5,6-2[8:1],7,8,1,2b,,,,
1-5[8:1],,7,8,1<6[8:1],2,3,,5>1[4:1],4>1[16:3],3>1[8:1],,5,,,,
8-4[8:1],,2,1,8>3[8:1],7,6,,4<8[4:1],5<8[16:3],6<8[8:1],,4,,,,
1-5[8:1],,7,8,1<6[8:1],2,3,,5>1[4:1],4>1[16:3],3>1[8:1],,5,,,,
8<1[16:7],7<1[16:6],6>1[16:5],5>1[16:4],1,2,3,,8<4[32:8],7<4[32:6],6>4[32:4],,8,,,,
1s5[8:1],,7,8,1<6[8:1],2,3,,5>1[4:1],4>1[16:3],3>1[8:1],,5,,,,
8z4[8:1],,2,1,8>3[8:1],7,6,,4<8[4:1],5<8[16:3],6<8[8:1],,4,,,,
1s5[8:1],,7,8,1<6[8:1],2,3,,5>1[4:1],4>1[16:3],3>1[8:1],,5,,,,
8<1[16:7],7<1[16:6],6>1[16:5],5>1[16:4],1,2,3,,8<4[32:8],7<4[32:6],6>4[32:4],,8,,,,
1>4[8:1],,8/7,,5,6,7,8,1<6[8:1],,5>2[8:1],,1-5[8:1],,5,,
1,,2h[4:1],,4,5,6,7,8-5[8:1]*-3[8:1],,1/7,,,,,,
8<5[8:1],,1/2,,4,3,2,1,8>3[8:1],,4<7[8:1],,8-4[8:1],,4,,
8,,7h[4:1],,5,4,3,2,1w5[8:1],,8/2,,,,,,
1<6[8:1]/2,,3/4,,5,4,3,2,1>4[8:1],,5<8[8:1],,1-5[8:1],,5,,
1>4[8:1],,7,,5<1[16:4],6<1[16:3],7>1[16:2],8,2>5[8:1],,2,,,,,,
8>3[8:1]/7,,6/5,,4,5,6,7,8<5[8:1],,4>1[8:1],,8-4[8:1],,4,,
8<5[8:1],,2,,4,3,2,1s5[16:3],8z4[8:1],,2/7,,,,,,
{4}2/8bz4[4:1],,,
{8},3,
{16}3h[8:1],,,1h[8:1]/4h[8:1],,,1/4,,
8h[8:1]/7h[8:1],,,8h[8:1]/1h[8:1],,,1/2,,
8bz4[4:1]/3h[1:1],
,,,,,,,,,,,,,,,
5h[16:3],,,3,4,,2/1,,8h[8:1]/7h[8:1],,,1h[8:1]/3h[8:1],,,1/3,,
{8}8bz4[4:1]/4,,3,,2,2,1<6[8:1],,
1s5[4:1],,6,,{16}7h[8:1],,,3h[8:1]/5h[8:1],,,2/4,,
{8}1s5[4:1]/5,,6,,7,7,8>3[8:1],,
8z4[4:1],4,3,2,{16}1bs5[8:1]*s5[8:1],1b,1b,1b,,,,,
1-5[8:1],,7,8,1V35[8:1],,2,,1V75[8:1],,7,8,1,,2,,
8-4[8:1],,2,1,8V64[8:1],,7,,8V24[8:1],,2,1,8,,7,,
4-8[8:1],,6,5,4V28[8:1],,3,,4V68[8:1],,6,5,4,,3,,
5-1[8:1],,3,4,5V71[8:1],,6,,5V31[8:1],,3,4,5,,6,,
1s5[8:1],,3,2,1V75[8:1],,7,,1V35[8:1],,3,2,1,,6,,
8z4[8:1],,6,7,8V24[8:1],,2,,8V64[8:1],,6,7,8,,3,,
4z8[8:1],,2,3,4V68[8:1],,6,,4V28[8:1],,2,3,4,,7,,
5s1[8:1],,7,6,5V31[8:1],,3,,5V71[8:1],,7,6,5,,2,,
3>1[16:2],,1<7[16:2],,7<3[4:1],6>3[16:3],5>3[16:2],,1,1,,8,8,,6,,
7<5[16:2],,5>3[16:2],,3>7[4:1],2<7[16:3],1<7[16:2],,5,5,,4,4,3,2,1,
8<5[16:3],,6>4[16:2],,4>8[4:1],3>8[16:3],2<8[8:1],,7,7,,6,6-2[8:1],,5,,
6<1[16:3],,8>2[16:2],,2>6[4:1],3<6[16:3],4<6[8:1],,7,7,,8,8,,1,,
1>8[16:7],2>8[16:6],3<8[16:5],4<8[16:4],1,8,7,6,1>8[16:7],2>8[16:6],3<8[16:5],4<8[16:4],1,8,7,6,
1-5[8:1],,2,2-6[16:2],,3,,2,,7,,5<1[16:4],6<1[16:3],7>1[16:2],8,,
2-6[8:1],,3,3-7[8:1],,4,,3,,8,,8<4[16:4],7<4[16:3],6>4[16:2],5,,
3,2,1,8,3>7[4:1],2<7[16:3],1<7[16:2],8,
6>2[4:1],5>2[16:3],4>2[8:1],3-7[16:1],,,,,,,,,E
