&title=G e n g a o z o
&artist=-45
&first=0.04
&lv_5=14
&des=我一不小心就
&inote_5=
(153){8}2,8h[16:1],2,8h[16:1],2,7h[16:1],2,7h[16:1],
2,6h[16:1],2,6h[16:1],2,5h[16:1],2,5h[16:1],
2,8h[16:1],2,8h[16:1],2,7h[16:1],2,7h[16:1],
2,6h[16:1],2,6h[16:1],2,5h[16:1],2,5h[16:1],
{16}3,4,3,4,{8}3,{16}6,5,,7,{8}8,{16}2,1,{8}2,
{16}6,5,6,5,{8}6,{16}3,4,,2,{8}1,{16}7,8,{8}7,
{16}2,1,2,1,{8}2,{16}7,8,,6,{8}5,{16}3,4,{8}3,
{16}7,8,7,8,{8}7,{16}2,1,,3,{8}4,{16}6,5,{8}6,
{16}2b,1,2,3,{8}2,{16}7,8,,6,{8}5,{16}3,4,{8}3,
{16}7,8,7,6,{8}7,{16}2,1,,3,{8}4,{16}6,5,{8}6,
{16}3b,4,3,2,{8}3,{16}6,5,,7,{8}8,{16}2,1,{8}2,
{16}6,5,6,7,{8}6,{16}3,4,,2,{8}1,{16}7,8,{8}7,
5b/4b,3x,5/6,7x,3/4,2x,5/6,7x,
3/5,2x,6/4,7x,4/2,1x,5/7,8x,
3/1,2x,8/6,7x,2/1,3x,8/7,6x,
2/8,3x,7/1,6x,1/3,4x,8/6,5x,
3/4,5/2,5/6,7/4,3/4,5/1,6/5,4/8,
4/3,1/7,5/6,8/2,3/4,2/8,6/5,7/1,
2/5,3/4,7/4,5/6,2/6,3/4,7/3,6/5,
{4}2x,2x,2x,4b/8b,
{16}1b,7,1,7,1,7,1,7,1,7,1,7,1,7,1,7,
5,7,5,7,5,7,5,7,5,7,5,7,5,7,5,7,
5,3,5,3,5,3,5,3,5,3,5,3,5,3,5,3,
5,7,5,7,5,7,5,7,5,7,4,6,3,5,2,4,
1,3,1,3,1,3,1,3,1,3,1,3,1,3,1,3,
7,3,7,3,7,3,7,3,7,3,7,3,7,3,7,3,
7,5,7,5,7,5,7,5,7,5,7,5,7,5,7,5,
7,5,8,6,1,7,2,8,3,1,4,2,{4}5h[4:1],
{16}7b,8,5,4,1,2,6,5,7,8,4,3,7,1,6,5h[16:13],
{4}7h,7h,7h,{16}8,1,8,1,
7,1,4,3,7,5,8,1,6,4,1,2,5,4,7,1h[16:13],
{4}5h,5h,5h,{16}6,5,6,5,
7,1,4,3,8,2,6,5,7,8,4,3,6,2,8,4h[16:13],
{4}6h,6h,6h,{16}1,2,1,2,
7,5,8,1,4,3,7,1,6,5,8,1,4,2,7,8,
6,6,5,5,4,4,3,3,7,7,8,8,1,1,2,2,
7b,4,5,4,5,4,5,4,8,5,6,5,7,4,5,4,
8,8,8,8,8,1,7,2,6,5,6,5,7,4,8,3,
7,4,5,4,5,4,5,4,8,5,6,5,7,4,5,4,
8,8,8,8,8,2,7,3,6,4,5,4,5,3,6,2,
7,4,5,4,5,4,5,4,8,5,6,5,7,4,5,4,
7,7,7,7,7,8,6,1,5,3,4,3,4,2,5,1,
7,4,5,4,5,4,5,4,8,5,6,5,7,4,5,4,
8,8,8,8,8,1,7,2,6,5,6,5,7,4,8,3,
{8}1b-5[16:1],4,1,3,{16}7-4[16:1],5,{8}6,4/7,3,
{16}2-5[16:1],4,{8}3,5/2,6,{16}7,7,1,1,8,8,2,2,
{8}6-1[16:1],5,6/4,3,{16}2-5[16:1],4,{8}3,5/2,6,
{16}7-4[16:1],5,{8}6,4/7,3,{16}2,2,8,8,1,1,7,7,
{8}2-5[16:1],1,2/8,7,{16}6-1[16:1],5,{8}6,1/6,2,
{16}3-8[16:1],4,{8}3,8/3,7,{16}6,6,4,4,5,5,3,3,
{8}7-4[16:1],8,7/1,2,{16}3-8[16:1],4,{8}3,8/3,7,
{16}6-1[16:1],5,{8}6,1/6,2,{16}3,3,5,5pp1[16:33]*p1b[16:1],4,4,6,5,
{1},,,,{8},5,
{16},5,,,5,,,5,,,{8}5h[1:1],
,7,{16},7,,,7,,,7,,,{8}7h[1:1],
,3,{16},3,,,3,,,3,,,{8}3h[16:15],
{16},1,,,1,,,1,,,{8}1,{16},1,,,2b,
,,3,,,{8}4,{16},5,,,{8}6h,6h,
{16}6,,,5,,,{8}4,{16},3,,,{8}2h,2h[8:7],
{16}1h,,,1h,,,{8}8h,{16},7h,,,{8}6h,6h[8:7],
{16}7h,,,8h,,,{8}1h,{16},2h,,,{8}3h,3h[8:7],
{16}4h,,,5h,,,{8}6h,{16},7h,,,{8}8h,8h[8:7],
{16}1h,,,2h,,,{8}3h,{16},4h,,,{8}5h,5h[8:7],
{16}6h,,,7h,,,{8}8h,{16},1h,,,{8}2h,2h[8:7],
{16}7h,,,6h,,,{8}5h,{16},4h,,,{8}3h,3h,
{16}8,,,6,{8}6b/5,3,{16}2,1,{8}2,3/8,3/8,
{16}7/5,,,3,{8}3/4,1,{16}6,5,{8}6,7/4,4/7,
{16}3/5,,,6,{8}7/5,8,{16}2,4,{8}2,3/5,5/3,
{16}8/1,,,3,{8}2/4,1,{16}7,5,{8}7,6/4,4/6,
{16}1/2,,,3,{8}4/5,6,{16}7,8,{8}7,6/1,5/4,
{16}8/3,,,6,{8}5/4,3,{16}2,1,{8}2,3/8,4/5,
{16}6/1,,,7,{8}8/6,5,{16}3,4,{8}3,2/5,3/6,
{16}4/7,,,2,{8}1/3,4,{16}6,5,{8}6,7/4,6/3,
{16}1b-5[16:1],,,7-4[16:1],,,{8}3-8[16:1],{16},6-2[16:1],,,{8}4,4,
{16}3-8[16:1],,,5-1[16:1],,,{8}2-7[16:1],{16},6-3[16:1],,,{8}1,1,
{16}2-6[16:1],,,7-4[16:1],,,{8}3-8[16:1],{16},5-1[16:1],,,{8}2,2,
{16}3-8[16:1],,,5-2[16:1],,,{8}1-6[16:1],{16},7-4[16:1],,,{8}2,2,
{16}8-4[16:1],,,2-5[16:1],,,{8}6-1[16:1],{16},3-7[16:1],,,{8}5,5,
{16}6-1[16:1],,,4-8[16:1],,,{8}7-2[16:1],{16},3-6[16:1],,,{8}8,8,
{16}7-3[16:1],,,2-5[16:1],,,{8}6-1[16:1],{16},4-8[16:1],,,{8}7,7,
{16}6-1[16:1],,,4-7[16:1],,,{8}8-3[16:1],{16},2-5[16:1],,,{8}7,7,
{16}1,8,1,7,1,6,1,5,1,5,2,6,3,7,4,8,
5,6,5,6,4,7,3,8,2,1,4,5,8,7,2,5,
3,4,3,5,3,6,3,7,4,6,3,7,2,6,1,5,
3,4,3,4,2,5,1,6,8,7,4,5,2,1,4,5,
1,8,2,8,3,8,4,8,4,8,3,7,2,6,1,5,
8,7,8,7,2,4,1,8,5,6,2,8,3,4,1,8,
5,6,5,6,4,7,3,6,2,5,1,6,8,7,1,6,
2,4,2,4,1,8,1,8,4,5,3,6,2,7,1,8,
2b-6b[16:29],4,1,8,5,6,1,8,3,4,2,5,1,6,8,7,
4,4,4,4,4,5,3,7,2,5,1,7,4,5,{8}2bh[16:1],
{16}7b-3b[16:29],5,8,1,4,3,8,1,6,5,7,4,8,3,1,2,
5,5,5,5,5,4,6,2,7,4,8,2,5,4,{8}7bh[16:1],
{16}1b-5b[16:29],8,5,6,1,7,4,5,2,8,4,6,3,7,2,8,
1,1,1,1,1,8,2,4,1,8,5,6,3,7,{8}1bh[16:1],
{16}8b-4b[16:29],1,4,3,8,2,5,4,7,1,5,3,6,2,7,1,
8,8,8,8,8,1,7,5,8,1,4,3-7[16:33],6,2,8b,3b,
E
