&title=アイラ
&artist=n-buna,GUMI
&first=-1.125
&des=0besatre0
&des_5=0besatre0
&lv_5=13+
&inote_5=(190){4},{8},,,,,,,,,,,3/4h,
4h,5/4h,
4h,3/4h,4h,3,2,2,1,1,
8/7,7,{4}7/6,{8}6/5,5,5/4,4,
{4}2b/4b<7[4:1],7>2[4:1],2>5[4:1],5<8[4:1],
1,2,{8}3,8,4,7,
{4}5/6,3/2,7/1,{8}8v3[8:1]*v5[8:1],7,
{4}8,2>4[8:1],{16}2/5x,6x,7x,5,6,7,8,1,
{8}5b/2,6,7,6/1-4[8:1],1/6,5,,2/7-4[8:1],
7/2,7,2,1,2,3,2,1,
{4}3b/4b,6/7,2/8,{8}1v6[8:1]*v4[8:1],2,
{4}1,7<5[8:1],{16}7/4x,3x,2x,4,3,2,1,8,
{8}7/4b,3,2,3/8-5[8:1],8/3,4,,7/2-5[8:1],
2/7,2,7,8,7,6,7,8,
{4}8b/5h[8:1],4h[8:1]/1h[8:1],2h[8:1]/3h[4:1],{8}1v7[8:1],8-4[8:1],
1,8x,1,1x,7/1x,,,1/8,
{16}7/1-5[8:1],,,,,C,{8}A5/B5,A6/E7/D7,8,7,1/2,
{4}3/1V35V71[2:1],{8}1/4,4,2,2,3,3,
{4}3b/1h[8:1],5h[8:1]/8h[8:1],7h[8:1]/6h[4:1],{8}8v2[8:1],1-5[8:1],
8,1x,8,8x,2/8x,,,8/1,
{16}2/8-4[8:1],,,,,C,{8}A4/B4,A3/D3/E3,1,2,8/7,
{4}6/8V64V28[2:1],{8}8/5,5,7,7,6,6,
{4}5h[4:1],2z6[4:1],6<4[2:1],5h[2:1],
{8},,,,,,6q2[4:1],6,
{4}6/2q6[4:1],6<6[2:1],C,6v3[8:1],
{8},,,,,,2-4[8:1],4-6[8:1],
{4}2,{8},,,,2-4[8:1],4-6[8:1],
{4}2/6>2[4:1],8,7,6,
{1}3h[2:1]/5h[2:1],
{2}3/5,{8}3/5,4/6,{4}5/7,
5/7p4[2:1],1-4[4:1],{2}1/C,
{4}2-7[8:1]/6-3[8:1],6/2,{8}8/4,1/5,6v1[8:1]/2v5[8:1],1v7[8:1]/5v3[8:1],
,,,,{2}4p3[8:3]/7q8[8:3],
C,{8}E5,B4,{4}E4,
5/6h[4:1],5h[4:1],4h[4:1],3h[4:1],
4h[4:1],5h[4:1],6h[4:1],5h[4:1],
{2}6h[2:1],4qq4b[4:3]*pp4[4:3],
{4}C,{8},,,,5h[8:1],4h[8:3],
,,{4}5,{8},,5h[8:1],4h[8:3],
{4}5,5,4h[2:1]/5h[8:1],5,
{2}5h[2:1],{4}2h[2:1],8h[2:1],
{8},1,,1/8,{4}1/8,8h[2:1],
{2}1h[2:3],{4}7,C,
6,C,{2}4h[2:1],
8h[4:3],{4}4,4,
{8}8h[2:1]/4h[2:1],,,,,8>3[8:1]/4<7[8:1],8/4,8bx/4bx,
,4/5,{4}5/4-8[8:1],{8}6-2[8:1],6,6,5h[8:3],
1w5[8:1],1,,,,1/5,1/5bx>2[8:1],{16}5,1,
{8}5/1bx<6[8:1],,,3-6[8:1],3-1[8:1],3/1-4-1[4:1]*-6-1[4:1],3,A1/D2/D1,
,A1/D1/D2,,,,7/8-4[8:1],8,8,
,7/8,8,1/8,8,8/1-6[8:1],8,7b/1-4[8:1],
,1/3b-7[8:1],,2b/3,,2h/1-6[8:1]*z5[8:1],1,1,
{4}B6/E6/A6/E7/A5,{8}8q3[4:1],8-5[4:1],8,8/C,A3/B3,A5/B5,
{16},,5,3,{8}5,{16}3,5,{8}3,5/3,{16}4,4,4,4,
,,{8}5/4,{4}4/5-1[8:1],{8}3-7[8:1],3,3,4h[8:3],
8w4[8:1],8,,,,8/4,8/4bx<7[8:1],{16}4,8,
{8}4/8bx>3[8:1],,,6-3[8:1],6-8[8:1],6/8-5-8[4:1]*-3-8[4:1],6,A8/D8/D1,
,A8/D1/D8,,,,1-5[8:1],5-1[8:1],1,
,8-4[8:1],4-8[8:1],8,,2>5[8:1],5-8[8:1],2,
,7s3[8:1],3z7[8:1],7,,2,2/1,2/8,
(184.6){4}7<1[8:3]/2>8[8:3],{8},,,,7/E3,C,
(190)2/E7,{16}8,1,7,2,6,3,,,,,{8}6/B2/B1,C,
{1}B7/B8/Ch[1:5]/3q8q5q2q7q4[4:19],
{4},,,,,,,,,,,,,,,,,2-4[8:1]/7-5[8:1],
2/7,{8}2/7,3,
4/7,6,2/5,4,2/7,3,4/7,5,
2/6,5,7/3,6,5/2,4,2/6,3,
4/7-3[8:1],1-3[8:1],7/1,1-7[8:1],,1-5[8:1]/7-5[8:1],,1/7,
{24},,,,,,,,,1/5h[2:1],,2,,3,,{8}4h[4:1],,,2h[2:1]/5h[1:1],
,,,,7-3[8:1],,7,
{24},,,,,,E8,E7,E6,E2,E3,E4,{4}C,{8}8/1-5[8:1],2,
1/8-4[8:1],7,8/2-6[8:1],1,5-8[8:1],4,3-7[8:1],4,
6v1[8:1],4,2<7[8:1],3,6>3[8:1],5,1>4[8:1],8,
1/7<4[8:1],8,7/1-4[8:1],8b,1/7-4[8:1],8b/E4/A4,1/7,A4/E5,
7/1,7/2,7/3,{16}7x/A1/E2/D2,6/A2/E3/D3,{8}5/E4/D4/A3,7/2b,2b/6,2b/5,
{1}Cf/2b>3-5<6-8>1-3<4-6<7-1>2-4<5-7>8-2[4:13],
,C,
{2}C,{4}C,{8}7>8-6-1-5-2-4>3[4:7],7,
{2}7h[4:1],{8}7,7,7,7,
{4}7,{8}7,7,{4}7,5h[4:1],
4,{16}5,4,5,4,{8}5,4,{16}5,,,6,
{8}5/6,6,7,{16}6,5,{8}6,2-6[8:1],1-5[8:1],2,
{4}1,3>8[8:1],{8},,4<7[8:1],4,
{4}4/2,{8}1<6[8:1],1,{4}3/1,2-6[4:1],
2/6<2[4:1],{8}2>6[4:1],2,,,3,3h[2:1],
{4}7h[2:1],{16},,,,,,,,A3/A7,E3/E7/A6/A2,E2/E6,E1/E5/A1/A5,
{4}A8/A4,,,4,
{8}5,,,5,,,{4}5,
4/5b,{8}4b/5,4/5b,{16},,,5h[16:15]/4h[16:11],{1},,,,,,,,,{4},,,{8}3/6h[8:25],
2,3,2,
,,4,3,4,3,,3,
{4}2,1,{8}2,3,2,3,
,,3,4,3,4,,4b/6h[4:1],
3,,,6h[4:1],2,2,2,2b/6h[4:1],
,,3,3b/6h[4:1],3,3,,2/7,
8/1,1p4[3##0.1579]/8q5[3##0.1579],{4}8h[1:2]/1h[2:3],{8},,,,,,,,,,,1,
1,1,,1/8,{4}1b/8b/B8/E8/E2/B1/B7/B2,{16}3/6,2x/7x,{8}8x-5[8:1]/1x-4[8:1],
,8/1,,2-5[8:1]/6-1[8:1],,,,6v1[8:1]/2v5[8:1],
5/1,6/2,,6/2,7/3,3-6[8:1],3-1[8:1],3/1-4-1[4:1]*-6-1[4:1],
3,A1/D2/D1,{16},,A1/D1/D2,2,3,4,5,6,{4}7h[8:1]/2h[8:1],
{8}2/7,3/6,5,4/7,6,8/5,7,6/1-5[8:1],
8,7b/1-5[8:1],,3b/1>4[8:1],{24},,,1b/8b,7/A2,6/A3,{8}5/A4,7h/8-3[8:1]*s4[8:1],
8,8,{4}B3/E4/A3/E3/A4,{8}1p6[4:1],1-4[4:1],1,1/C,
A6/B6,A4/B4,{16},,E4,E5,{8}E6,{16}E8,E1,{8}E2,8/2,
{16}1,1,1,1,,,{8}4/5,{4}5/4-8[8:1],{8}6-2[8:1],6,
6,5h[8:3],1w5[8:1],1,,,,4-1[8:1]/7-4[8:1],
7/4<1[4:1],7/4,{16},2,3,4,5b/A1,2,3,4,5,6,7,8,
{4}1/5b,{16}1-4[8:3],1,1-6[16:5],1,1-5[4:1],1,1,1,,,A4,A6,
{8}A5,8h[2:1],,2,2,2h[2:1],,4,
4,4h[2:1],,6,6,6h[2:1],,8,
8,8,8/6,6,7/5,5,6/4,4,
5/3,3,{16}6/3,,,6,3,6,,3,{8}6,4V26[8:1],
5b,4,,5V72[8:1],4b,5,,4V28[8:1],
5b,4,,5s1[8:1]/4z8[8:1],4b,5/4,,7/2,
8/1,8/1,{4}8h[2:1]/1h[2:1],{8},,,,1,
2,{4}3,{8}6,7,{32}2/8bh[16:3],3,4,5,{8}6,
{32}7/1bh[16:3],6,5,4,3,2,E1f,8,{4}7bh[4:3]/3bh[4:3],,,,C/A8/E1/E2/A2/B2/E6/D6,
,,,A5/B5/C/A2/E2/B1/B8/E8,
,,,E1/E2/B7/C/B3/B4/A5/E5,
,,,3b/4b,
6/7,2/8,
{8}1v6[8:1]*v4[8:1],2,{4}1,7<5[8:1],{16}7/4x,3x,2x,4,
3,2,1,8,{8}4b/7,3,2,3/8-5[8:1],8/3,4,
,7/2-5[8:1],2/7,2,7,8,7,6,
7,8,{4}6b/5b,3/2,7/1,
{8}8v3[8:1]*v5[8:1],7,{4}8,2>4[8:1],{16}2/5x,6x,7x,5,
6,7,8,1,{8}5b/2,6,7,6/1-4[8:1],1/6,5,
,2/7-4[8:1],7/2,7,2,1,2,3,
2,1,{4}3b/4b,6/7,2/8,
{8}1v6[8:1]*v4[8:1],2,{4}1,7<5[8:1],{16}7/4x,3x,2x,4,
3,2,1,8,{8}4b/7,3,2,3/8-5[8:1],8/3,4,
,7/2-5[8:1],2/7,2,7,8,7,6,
7,8,{4}6b/5h[4:3],,,,4h[4:3],
,,,6h[4:7],
,,,3h[4:3],
,,,7h[4:3]/6h[4:3],
,,,3h[4:3]/2h[4:3],
,,,5h[4:7]/4h[4:3],
,,,6h[4:3],
,,,B6/B2,
B7/B3,C,
{8}B5,B4,{4}B8,B1,Ch[2:1],
{8}E7,E3,
E
