&title=あなぐらぐらし
&artist=きくお/初音ミク
&first=0.04
&des_1=Da da Da da Da da ̿D̮ͯa̐ ̸̃ḋ̶a͟ ҉ Da da Da da Da ̵̮d̷á D̵͇a̛̻ͫ ̜̯ͫ͟d̵̞͖̍a̞͌̎̒ ̸̞̜ͥ̈́͡D̒̆ͬ͏̧̝̗̤͕͝a̶̻̐ͯ̊̕ ̸̅ͯ̃ḑ̹̬̜̪͗͂̕͢͠ą̷̬͙̦̿͑̾͊ͦ̀ ̂̀͏̶̖D̸̦͇ͣ͂́̚̕̕a̡͇ͪ ̠̂ͤ̿ͣd̴̸͚̿̀͜ȁ̷̙̗̞̮́ ̷̧ͩ̍͂̈͘͜D̶̬͓͇̽̂̔ͥ͝å҉̵̫̣͜ ̺̫ͩ͜d́҉̥͚̥͓́ȧ̛̖̠̼͙̊̅̀͜͞ ̦̃ͫ̏͂͛ͦ̕
&des_2=Da da Da da Da da ̿D̮ͯa̐ ̸̃ḋ̶a͟ ҉ Da da Da da Da ̵̮d̷á D̵͇a̛̻ͫ ̜̯ͫ͟d̵̞͖̍a̞͌̎̒ ̸̞̜ͥ̈́͡D̒̆ͬ͏̧̝̗̤͕͝a̶̻̐ͯ̊̕ ̸̅ͯ̃ḑ̹̬̜̪͗͂̕͢͠ą̷̬͙̦̿͑̾͊ͦ̀ ̂̀͏̶̖D̸̦͇ͣ͂́̚̕̕a̡͇ͪ ̠̂ͤ̿ͣd̴̸͚̿̀͜ȁ̷̙̗̞̮́ ̷̧ͩ̍͂̈͘͜D̶̬͓͇̽̂̔ͥ͝å҉̵̫̣͜ ̺̫ͩ͜d́҉̥͚̥͓́ȧ̛̖̠̼͙̊̅̀͜͞ ̦̃ͫ̏͂͛ͦ̕
&des_3=Da da Da da Da da ̿D̮ͯa̐ ̸̃ḋ̶a͟ ҉ Da da Da da Da ̵̮d̷á D̵͇a̛̻ͫ ̜̯ͫ͟d̵̞͖̍a̞͌̎̒ ̸̞̜ͥ̈́͡D̒̆ͬ͏̧̝̗̤͕͝a̶̻̐ͯ̊̕ ̸̅ͯ̃ḑ̹̬̜̪͗͂̕͢͠ą̷̬͙̦̿͑̾͊ͦ̀ ̂̀͏̶̖D̸̦͇ͣ͂́̚̕̕a̡͇ͪ ̠̂ͤ̿ͣd̴̸͚̿̀͜ȁ̷̙̗̞̮́ ̷̧ͩ̍͂̈͘͜D̶̬͓͇̽̂̔ͥ͝å҉̵̫̣͜ ̺̫ͩ͜d́҉̥͚̥͓́ȧ̛̖̠̼͙̊̅̀͜͞ ̦̃ͫ̏͂͛ͦ̕
&des_4=Da da Da da Da da ̿D̮ͯa̐ ̸̃ḋ̶a͟ ҉ Da da Da da Da ̵̮d̷á D̵͇a̛̻ͫ ̜̯ͫ͟d̵̞͖̍a̞͌̎̒ ̸̞̜ͥ̈́͡D̒̆ͬ͏̧̝̗̤͕͝a̶̻̐ͯ̊̕ ̸̅ͯ̃ḑ̹̬̜̪͗͂̕͢͠ą̷̬͙̦̿͑̾͊ͦ̀ ̂̀͏̶̖D̸̦͇ͣ͂́̚̕̕a̡͇ͪ ̠̂ͤ̿ͣd̴̸͚̿̀͜ȁ̷̙̗̞̮́ ̷̧ͩ̍͂̈͘͜D̶̬͓͇̽̂̔ͥ͝å҉̵̫̣͜ ̺̫ͩ͜d́҉̥͚̥͓́ȧ̛̖̠̼͙̊̅̀͜͞ ̦̃ͫ̏͂͛ͦ̕
&des_5=Da da Da da Da da ̿D̮ͯa̐ ̸̃ḋ̶a͟ ҉ Da da Da da Da ̵̮d̷á D̵͇a̛̻ͫ ̜̯ͫ͟d̵̞͖̍a̞͌̎̒ ̸̞̜ͥ̈́͡D̒̆ͬ͏̧̝̗̤͕͝a̶̻̐ͯ̊̕ ̸̅ͯ̃ḑ̹̬̜̪͗͂̕͢͠ą̷̬͙̦̿͑̾͊ͦ̀ ̂̀͏̶̖D̸̦͇ͣ͂́̚̕̕a̡͇ͪ ̠̂ͤ̿ͣd̴̸͚̿̀͜ȁ̷̙̗̞̮́ ̷̧ͩ̍͂̈͘͜D̶̬͓͇̽̂̔ͥ͝å҉̵̫̣͜ ̺̫ͩ͜d́҉̥͚̥͓́ȧ̛̖̠̼͙̊̅̀͜͞ ̦̃ͫ̏͂͛ͦ̕
&lv_5=13+
&des_6=Da da Da da Da da ̿D̮ͯa̐ ̸̃ḋ̶a͟ ҉ Da da Da da Da ̵̮d̷á D̵͇a̛̻ͫ ̜̯ͫ͟d̵̞͖̍a̞͌̎̒ ̸̞̜ͥ̈́͡D̒̆ͬ͏̧̝̗̤͕͝a̶̻̐ͯ̊̕ ̸̅ͯ̃ḑ̹̬̜̪͗͂̕͢͠ą̷̬͙̦̿͑̾͊ͦ̀ ̂̀͏̶̖D̸̦͇ͣ͂́̚̕̕a̡͇ͪ ̠̂ͤ̿ͣd̴̸͚̿̀͜ȁ̷̙̗̞̮́ ̷̧ͩ̍͂̈͘͜D̶̬͓͇̽̂̔ͥ͝å҉̵̫̣͜ ̺̫ͩ͜d́҉̥͚̥͓́ȧ̛̖̠̼͙̊̅̀͜͞ ̦̃ͫ̏͂͛ͦ̕
&des_7=Da da Da da Da da ̿D̮ͯa̐ ̸̃ḋ̶a͟ ҉ Da da Da da Da ̵̮d̷á D̵͇a̛̻ͫ ̜̯ͫ͟d̵̞͖̍a̞͌̎̒ ̸̞̜ͥ̈́͡D̒̆ͬ͏̧̝̗̤͕͝a̶̻̐ͯ̊̕ ̸̅ͯ̃ḑ̹̬̜̪͗͂̕͢͠ą̷̬͙̦̿͑̾͊ͦ̀ ̂̀͏̶̖D̸̦͇ͣ͂́̚̕̕a̡͇ͪ ̠̂ͤ̿ͣd̴̸͚̿̀͜ȁ̷̙̗̞̮́ ̷̧ͩ̍͂̈͘͜D̶̬͓͇̽̂̔ͥ͝å҉̵̫̣͜ ̺̫ͩ͜d́҉̥͚̥͓́ȧ̛̖̠̼͙̊̅̀͜͞ ̦̃ͫ̏͂͛ͦ̕
&des=Da da Da da Da da ̿D̮ͯa̐ ̸̃ḋ̶a͟ ҉ Da da Da da Da ̵̮d̷á D̵͇a̛̻ͫ ̜̯ͫ͟d̵̞͖̍a̞͌̎̒ ̸̞̜ͥ̈́͡D̒̆ͬ͏̧̝̗̤͕͝a̶̻̐ͯ̊̕ ̸̅ͯ̃ḑ̹̬̜̪͗͂̕͢͠ą̷̬͙̦̿͑̾͊ͦ̀ ̂̀͏̶̖D̸̦͇ͣ͂́̚̕̕a̡͇ͪ ̠̂ͤ̿ͣd̴̸͚̿̀͜ȁ̷̙̗̞̮́ ̷̧ͩ̍͂̈͘͜D̶̬͓͇̽̂̔ͥ͝å҉̵̫̣͜ ̺̫ͩ͜d́҉̥͚̥͓́ȧ̛̖̠̼͙̊̅̀͜͞ ̦̃ͫ̏͂͛ͦ̕
&inote_5=(64)
{1},
{4},
,
,
7x<4[4:1],
{16},E4,E3,E2,
{4}8x<5[4:1],
{16},E4,E3,E2,
{4}8xqq6[4:1],
{16},E2,E3,E4,
{4}4x>1[16:3],
{16}8x,7x,6x,5x,
E1,E2,E3,E4,
{16}8x<5[16:3],,,E4,
2x,,,1xh[16:1],
{4}4x<7[16:3],
{16}E1,E2,E3,E4,
{4}8x<5[16:3]/4xp2[4:1],
4x,
{16}4x<7[8:1],1x,2xpp1[4:1],3x,
{4}4x,
{16}8x<5[16:3],,,B1,
C,B4,D4,D3,
D2/4x<7[16:3],,,D2,
D3,D4,B4,C,
{16}B1/8x<5[16:3],,,B1,
C,B4,D4,D3,
4x/D2,5x,6x,7x,
E6,E5,E4,E3,
{16}1xh[8:1]/4x<7[16:3],,,2x,
{4}2x,
{16}3x,4x,8x,7x,
1x,2x,5x,6x,
(96.5){32}7x/5x,4x,3x,2x-6[32:21],{8}1bxz5b[8:11],
,,
,,
,,
{1},
{8}1,{16}B1,7,
,B7,,2,
,B2,,8,
,B8,,,
{8}4,{16}B4,6,
,B6,,3,
,B3,,5,
,B5,,,
{8}4,{16}E7/B7,5,
,E4/B3,,4,
,E6/B6,,5,
,B1/B2,{8},
{32}1,5,1,5,1,5,1,5,
1,5,1,5,1,5,1,5,
2,3,4,5,6,7,8,1,
{4}D2/E2/B2/E3/D3/A2f/8-4[16:1],
{8}8b/B8f/D1/E1/E8/D8,{16}3x,5/2h[8:1],
,6,,7/5,
,3-7[8:1],,4/2h[16:3],
,3x,,,
{8}5/8,{16}6,2/4h[8:1],
,3,,5/4h[8:1],
,7-3[8:1],,5/6h[16:3],
,7x,,,
{8}2/5,{16}6,5/7h[8:1],
,3,,2/4,
,5-1[8:1],,3/7h[16:3],
,5x,,,
{8}4/2,{16}3,7/5h[8:1],
,6,,4h[8:1]/3v8[8:1],
,2-5[8:1],,1,
,2x,,,
{8}7b/4,{16}1,4/2h[8:1],
,5,,6h[8:1]/4v7[8:1],
,2,,4/3,
,1b,,,
{8}8/3,{16}4,5/6h[8:1],
,1,,2h[8:1]/4pp3[4:1],
,1,,4/6,
,8b,,,
{8}2b/5,{16}8,5/7h[8:1],
,4,,3h[8:1]/5^2[8:1],
,8,,5/6,
,8b,,,
{8}1/6,{16}5,4/3h[8:1],
,8,,7h[8:1]/5-2[8:1],
,8p4[8:1],,5/1,
,8b,,,
{8}1h[8:1],{16}5,1,
,1/5,,5/1,
,8h[8:1],,4,
{8}1/5,1/5,
{8}1/5,{16}8h[16:1],4,
,1/5,,1/5,
,5<7[8:1]/1>3[8:1],,4h[16:1],
{4}8,
{16}8<5[16:3],,,4,
{4}8,
{16}1>4[16:3],,,4,
{4}1,
{16}7<4[16:3],5,,5,
{4}7,
{16}2>5[16:3],3,,3,
{4}2,
{16}6V85[16:3],8,,8,
{4}6,
{16}8V61[16:3],6,,6,
{4}8,
{16}6V83[16:3],8,,8,
{4}6,
{16}5x<4[4:1],4x,,4x,
{4}5x,
{8}8h[8:1],{16}5,5,
6,5,6,5,
,1x,1x,4x,
3x,4x,3x,4x,
{16},8,8,5,
6,5,6,6,
2x,4x,3x,4x,
2x,1x,2x,2x,
{8}8<5[8:1],5p8[8:1],
,,
5<8[8:1],8v5[8:1],
,,
{8}8<5[8:1],5v7[8:1],
{16},,,8h[16:3],
,,,,
{8}7/1,3/5,
{16}7,6,5-1[12:1]*-2[12:1],4,
{8}3,5x,
{16}6,5,4v2^1[12:1]*-1[12:1],3,
{8}2,4x,
{16}7,6,5v2[12:1]*-2[12:1],4,
{8}3,5x,
{16}6,5,4p8[12:1]*v1[12:1],3,
{4}2,
{16}7,6,5,4,
6,5,4,3,
{12}2x/4x,3x/5x,4x/6x,
7x/5xh[1:1],8x,1x,
{4}B2/A2,
A3,
4x>3>2<1<8<7<6>5[16:3]*>5b[16:3],
4bx/D5/E5/E4/D4/B4f,
{8}1b>5b[8:1],{16}7,7,
1<6[32:3],6,7,8,
{8}2/1b<4b[32:5],{16}3,3,
1,3,2,1,
{16}8,8,5,5,
2,2,7,7,
8/4qq5[16:3],3/7,4/8,7/3,
{4}4b/8<6[12:1],
{8}8b<4b[8:1],{16}2,2,
8>3[32:3],3,2,1,
{8}5/8b>5b[32:5],{16}6,6,
8,6,6,7,
{16}8/4,8/4,7,2,
7/3,7/3,6,2,
1/5,2/6,1/5,2/6,
{32}1x>3[16:1],5x,1x,5x,1x,5x,1x,5x,
{8}1b>4b[32:3],{16}5,5,
{8}1b>5[8:1],{16}6,6,
{8}1b>6b[32:5],{16}7,7,
1b,8,8,8,
{16}7/5,5/7,6,3,
6/4,6/4,5,2,
5/1,6/2,5/1,6/2,
{32}5x-8[32:3],1x,5x,1x,5x,1x,5x,1x,
{8}5bq1b[8:1],{16}2,2,
{8}5bq2[32:5],{16}3,3,
{8}5bq3b[16:3],{16}4,4,
5b,4,4,4,
{2}5xh[2:1],
{16}7x-3[4:3],8x,{8}1x,
{16}6xz2b[4:3],5x,{8}4x,
{4},
,
,
1b/B1f/D1/E1/D2/E2,
{8}4b/6b,{16}7,1,
{8}2/4,{16}3h[16:1],5,
,8/7,,1,
{8}3b/7b,6/5,
{16}7/1,{32}2,4,{16}3,6/5,
7/8,1,2,3,
4/5,7,6,5,
{24}1b,2b,3b,4b,{12},
{16}4/5,{32}6,7,{16}8,4,
{12}5/3b,5/2b,5/1b,
2/5b,3/6b,4/7b,
5b/8,4b/8,3b/8,
{24}2b,1,2,1,2,1,
{12}2h[6:1],8,{24}7,,
,3,{12}4,{24}6,5,
{12}8,6/3,4/5,
{48}1h,E1,,,7h,B7,,,2h,B2,,,
5h,E5,,,3h,B3,,,6h,B6,,,
2h,B2,,,8h,B8,,,4h,E5,,,
6h,E6,,,3h,B3,,,7h,B7,,,
{48}2b,3,,,8,7,,,1,2,,,
6b,5,,,3,4,,,7,6,,,
2b,3,,,{24}7,5,{12}7,
5b/6b,8b/1b,2b/4b,
{16}3h[8:1],{32}7,8,{16}1,5,
8,7,1,2,
{32}3/4b,,,5,,,{16}6,
{32}7/8b,,,1,,,{16}2h[48:7],
{48},,,,4x,5x,{8}6xh[8:3],
{4},
{12}3,{48}3x,4x,{8}5xh[8:3],
{4},
{16}1,{32},,,,7,5,
{16}7,{32},,,,3,4,
{16}3,{32},,,,6,5,
6h[32:3],,,1h[32:9],,,{16}4h[16:3],
{32},,,,,2b/5,3b/6,7/4b-8[32:25],
{4}8/5bs1b[4:3],
E
