&title=anemone heart
&artist=内田彩,三森すずこ
&first=0
&des=luvlily
&lv_5=13+
&inote_1=
&inote_2=
&inote_3=
&inote_4=
&inote_5=(130){1},
{16}5h[32:4],,,7,5h[32:4]/6h[32:4],,,,4h[32:4],,,,3h[32:4]/4h[32:4],,,,
4h[8:1],,,2,3h[8:1]/4h[8:1],,,,5h[8:1],,,,5h[8:1]/6h[8:1],,,,
7h[8:1],,,8,1h[8:1]/2h[8:1],,,,8h[8:1],,,,8w4[16:7]/1h[8:1],,,,
{2},
{16},1,1,8,8,2,2,7,7/2-5[8:1],,,,
{8}28,,2-6[8:1]/8,1,2/5-1[8:1],,5/8^2[8:1]*^6[8:1],,,,7-3[8:1]/1,2,4-8[8:1]/7,,1p4[4:1]*p5[4:1]/4,,,,,
2-6[8:1],2,8q5[4:1]*p3[4:1],8,,,,,36,3/6-1[8:1],,
46,,6-8[8:1]/2,,6-2[8:1]/4,5,6/1-5[8:1],,1/4^2[8:1]*^6[8:1],,,,
3-7[8:1]/5,4,3/8-4[8:1],,5q1[4:1]*q2[4:1]/8,,,,,
4-8[8:1],4,6p1[4:1]*q3[4:1],6,,,,,28,1-5[2:1],,,,,,,,,,
46,2,46,8,46,2v5[8:1],46,8v3[8:1]/2,,6v1[8:1]/8,,4w8[8:1]/6,,,,,
26,8,28,6,68,4,46,2,,28,68,2pp4[8:1]/6qq4[8:1],,,,,
2-4[8:1]/4,6,2/8-2[8:1],6,6-8[8:1]/8,6,26,4-8[8:1],,45,7-3[8:1],6-2[8:1],,,,
35,7,57,1,35,7,57,1,35,3h[8:1]/5h[8:1],,6h[8:1],,45,36,27,18,
3>6[4:1]/6,,5,4<1[4:1],,,2,3>6[4:1],,,5,4,3<8[4:1],,,1,2>7[4:1],,8,1>8[8:3],,,
8<1[8:3],1,,,,,8,17,26,35,4>8[4:1],,8-4[8:1],7<3[4:1],,,2>6[4:1],1h[8:2],,,
8-6[8:1],1-5[8:1],2-4[8:1],,,,18,1-5[8:1]/8-4[8:1],27,18,,
45,45,4bz8[8:5]/6bz2[8:5],,,,,,,,,
5-2[8:1]/7,8,1-4[8:1]/5,7,16,,56,2/4-7[8:1],,4/8<2[4:1],,38,,,
{8}1,1-5[8:1]/2,,18,7,6V41[4:1],5q1[8:1],,,,,2>7[4:1]/7,18,2/7<2[4:1],,,,,
4-7[8:1]/2,1,8-5[8:1]/4,2,83,,34,5-2[8:1]/7,,1<3[4:1]/5,7,16,,,
3<8[4:1]/5,2h[8:1],,2,1-5[8:1],1,2-6[8:1],
{16},3-7[8:1],
{8},4bqq1[2:1]*pp7[2:1],,,,,,,,,
1-6[8:1]/3,4,5-8[8:1]/1,3,52,,12,6/8-3[8:1],,8/4>6[4:1],6,74,,,
5,5-1[8:1]/6,,54,3,2V85[4:1],,,6V41[4:1],6,,3>6[4:1],,6<3[4:1],,,
4-8[8:1],5,6w2[4:1],,,,,8-4[8:1],1,2-6[8:1],,,,
35,1,57,1,35,1,
{16}7,5,1,,3,5,1,,7,5,1,,3,5,1,,3,5,3,5,4,3,
{24}2,1,8,7,6,5,
{32}4,3,2,1,8,7,6,5,4-8[8:1],,,,,,,,
{8}4/6-2[8:1],,8-4[8:1]/6,1,5-2[8:1]/8,,1-6[8:1]/5,,1/3-8[8:1],,
3/7-2[8:1],4,5qq1[8:3]*pp1[8:3]/7,,5,,,,,56,4>7[4:1]/7,56,4/7>4[4:1],,,,,
2>5[8:1],2,,8-4[8:1],,8/2-6[8:1],,4-8[8:1]/2,5,1-6[8:1]/4,,5-2[8:1]/1,,5/7-4[8:1],,
7/3-6[8:1],8,1qq5[8:3]*pp5[8:3]/3,,1,,,,,12,8<3[4:1]/3,12,8/3<8[4:1],,,,,
4,4/5<5[1:3],
{1},,,,
{8},4>4[8:7]/5,,,,,,,,,,,
{16}18,18,1>8[8:5]/8,,27,,18,,,,1>8[2:1],,,,,,,,1>8[8:3],,,,,,,,1>8[4:1],,,,,,,,
{32}1w5[8:1],2,3,4,5,6,7,8,1,,,,,,,,
{24}7b,4,5,4,5,4,6,3,6,3,6,3,7,2,7,2,7,2,8,
{12}1,7,
{8}8v5[8:1]/2,3,8/4<7[8:1],2,41,,62,8v3[8:1]/7,,8/4>6[4:1],,74,,,
{32},
{8}5,6-2[8:1]/5,,76,8,1V36[4:1],2p6[8:1],,,,,8>5[4:1]/5,74,8/5>8[4:1],,,,,
1v4[8:1]/7,6,1/5>2[8:1],7,58,,37,1v6[8:1]/2,,1/5<3[4:1],3,25,,,
8<3[4:1],1h[8:1],,1-5[8:1],1,1,
{12}6<1[8:1],,5,,
{32},
{12}4bqq2[2:1]*pp6[2:1],,,
{8},,,,,,,
{8}
4v1[8:1]/6,7,4/8>3[8:1],6,85,,26,4v7[8:1]/3,,4/8<2[4:1],2,38,,,
1,1-5[8:1]/2,,18,7,6V41[4:1],,,2V85[4:1],2,,7<2[4:1],,2>7[4:1],,,
8-4[8:1],1,2w6[4:1],,,,,4-8[8:1],5,6-2[8:1],,,,
71,5,13,5,71,5,
{16}3,1,5,,7,1,5,,3,1,5,,7,1,5,,7,1,7,2,8,2,
{24}8,1,8,1,8,1,
{32}8,1,8,1,8,1,8,1,8-5[8:1],,,,,,,,
{8}8/2-7[8:1],,2/6v1[8:1],5,8p4[8:1]/6,,8/3<6[8:1],,
1v4[8:1]/3,,1/3<6[8:1],2,3/1qq5[16:6]*pp5[8:3],,1,,,,,
52,4/1<4[4:1],52,4<1[4:1]/1,,,,,
5>2[8:1],5,,1-4[8:1],,
1/7-2[8:1],,7/3v8[8:1],4,1q5[8:1]/3,,1/6>3[8:1],,
8v5[8:1]/6,,8/6>3[8:1],7,6/8qq4[16:6]*pp4[8:3],,8,,,,,
47,5/8>5[4:1],47,5>8[4:1]/8,,,,,63,63,1b/8b,,
{32},,,,E
