&title=Apollo -onoken AxSwing Remix-
&artist=onoken
&first=0
&des=吴奇隆
&des_5=吴奇隆
&lv_5=14
&inote_5=(118){4},{1},{4},,,{12}3,
{24}3,4,,4,{12}5,{24}5,6<8[12:1],,6,{8}1h[12:1],2>4[12:1],{12}2,1h[8:1],,8,
{24}8,5,,5,{12}6,{24}6,3,,3,{12}4<6[12:1],{24}4,1h[12:1],,,,,{6}8h[8:1],
{12}7,{24}7,6,,6,{12}5,{24}5,4>2[12:1],,4,{8}1h[12:1],8<6[12:1],{12}8,1h[8:1],{24},,{8}5xh[12:1]/2xh[12:1],
4h[12:1]/3h[12:1],{12}6,{24}6,5,,5,{12}7<5[12:1],{24}7,4h[12:1],,,,,{6}3h[8:1],
{12}6,{24}6,5,,5,{12}4,{24}4,3>1[12:1],,3,{8}8h[12:1],7<5[12:1],{12}7,8h[8:1],,1,
{24}1,4,,4,{12}3,{24}3,6,,6,{12}5>3[12:1],{24}5,8h[12:1],,,,,{6}1h[8:1],
{12}2,{24}2,3,,3,{12}4,{24}4,5<7[12:1],,5,{8}8h[12:1],1>3[12:1],{12}1,8h[8:1],{24},,{8}4xh[12:1]/7xh[12:1],
5h[12:1]/6h[12:1],{12}3,{24}3,4,,4,{12}2>4[12:1],{24}2,5h[12:1],,,,,{6}6,
{4}B6h[4:7]/5xp7>5[2:3],B7,B5,C,
B7,B5,C,B7,
B2h[4:7]/1xp3<1b[2:3],B3,B1,C,
B3,B1,C,B3,
{12}5x/7x,{24}5,6,,3,{12}5,{24}4,7,,7,{12}5,{24}5,6,,3,{12}5,{24}4,8,,8,
{12}5,{24}5,6,,3,{12}5,{24}4,1,,1,{12}5,{24}5,6,,3,{12}5,{24}4,2,,2,
{12}3x/1x,2/8,1/7,6/8,7/5,6/4,{32}3x/5x,2,1,8,7,6,5,4,3,2,1,8,7,6,5,4,
{4}3h[8:5],2,1w5[12:1],1b,
{8}8h[8:1]/1V75[8:1],2,3V17[8:1],4,5V31v4[24:5],6,{4}7h[8:1],
{8}8-4[12:1],6/4-2[16:1],8/2<6[8:1],1,5>7b[16:3],5,{4}6h[8:1],
{48}A5,D5,A4,D4,A3,D3,A2,D2,A1,D1,A8,D8,{12}A7,3h[12:1],4h[12:1],2pp4[12:1],{24}6,5<8[12:1],{3}4,
{8}2-7[12:1],3/1,7/2-5[12:1],5-8[12:1],2/8<2b[6:1],7,{4}1,
{8}1h[8:1]/8V24[8:1],7,6V82[8:1],5,4V68v5[24:5],3,{4}2h[8:1],
{8}1-5[12:1],3/5-7[16:1],1/7>3[8:1],8,4<2b[16:3],4,{4}3h[8:1],
{48}A4,D5,A5,D6,A6,D7,A7,D8,A8,D1,A1,D2,{12}A2,6h[12:1],5h[12:1],7qq5[12:1],{24}3,4>1[12:1],{3}5,
{4}7-3[12:1],7/5-1[12:1],5/8-4[12:1],2b/8b,
{12}5/3,{24}4,7,,5,{12}6,{24}2,4,,1,{8}8h[12:1],{24}6/7,5,4,{8}3h[12:1],{24}1/2,8,7,
{8}6h[12:1]/5h[12:1],3h[12:1]/2h[12:1],{12}8/7h[12:1],{24}6,5,4,3,{8}6/2-6[12:1],4/8,{4}6/2,
{12}5/7,{24}6,4,,1,{12}2,{24}6,8,,5,{8}4h[12:1],{24}2/3,1,8,{8}7h[12:1],{24}5/6,4,3,
{8}2h[12:1]/1h[12:1],6h[12:1]/7h[12:1],{12}4/3h[12:1],{24}5,6,7,8,{8}5/1s5b[8:1],7/3,{4}5/1,
{32}3/7,4,5,6,7,8,1,2,{12}3/5,{24}7,5,,8,{8}1h[12:1],{24}3/2,4,5,{8}6h[12:1],{24}8/7,1,2,
{8}3h[12:1]/4h[12:1],6h[12:1]/7h[12:1],{12}1/2h[12:1],{24}3,4,5,6,{8}3/7-3[12:1],1/5,{4}7/3,
{12}4/2,{24}3,5,,8,{12}7,{24}3,1,,4,{8}5h[12:1],{24}7/6,8,1,{8}2h[12:1],{24}4/3,5,6,
{8}7h[12:1]/8h[12:1],3h[12:1]/2h[12:1],{12}5/6h[12:1],{24}4,3,2,1,{8}4/8z4b[8:1],2/6,{4}4/8,
{24}3x/5xpp6[6:1],4,5,6,7,8h[6:1],,,,,,,4x/2x>6[6:1],3,2,1,8,7h[6:1],,,,,,,8x/5xqq4[6:1],
4,3,2,1,8h[6:1],,,,,,,2x/5xp7[6:1],6,7,8,1,2h[6:1],,,,,,,8x/6xV82[6:1],
5,4,3,2,1h[6:1],,,,,,,1x/3xpp4[6:1],4,5,6,7,8h[6:1],,,,,,,3x/7xp2[6:1],
2,1,8,7,6h[6:1],,,,,,,1xs5[6:1]/5xv7[8:1],8,7,6,{3}5,
{24}6x/4xqq3[6:1],5,4,3,2,1h[6:1],,,,,,,5x/7x<3[6:1],6,7,8,1,2h[6:1],,,,,,,1x/4xpp5[6:1],
5,6,7,8,1h[6:1],,,,,,,7x/4xq2[6:1],3,2,1,8,7h[6:1],,,,,,,1x/3xp6[6:1],
4,5,6,7,8h[6:1],,,,,,,1x/5xV31[6:1],8,7,6,5,4h[6:1],,,,,,,{12}7x/8x,
1/8,1/2,3x/4x,4/5,5/6,7x/8x,4/5,1/2,3x/4x,8/1,6/5,
{4}8b/7b<2[2:3],8h[4:1],{8},8h[8:1],{24},,{6}8h[8:1],
{24}1h[8:1],,,,,1h[6:1],,,,,,,,,,{8}1h[8:1],{24},,{6}1h[8:1],
{24}8/7<2[2:3],,,,,8h[6:1],,,,,,,,,,{8}8h[8:1],{24},,{6}8h[8:1],
{8}1h[12:1],1h[8:1],,,1h[12:1],1,1h[12:1],1,
{12}4x/2x,{24}4,3,,6,{12}4,{24}5,2,,2,{12}4,{24}4,3,,6,{12}4,{24}5,1,,1,
{12}4,{24}4,3,,6,{12}4,{24}5,8,,8,{12}4,{24}4,3,,6,{12}4,{24}5,7,,7,
{12}6x/8x,7/1,8/2,3/1,2/4,3/5,{32}6x/4x,7,8,1,2,3,4,5,6,7,8,1,2,3,4,5,
{4}6h[8:5],7,8w4[12:1],8b,
{8}7/1h[8:1],8h[8:1],2h[8:1],{24}4v3[12:1],,3,{6}6v7[12:1],{24},,,,2,8,,1,
{8}7qq6[8:1],8,{12}1/7,2h[8:1],{24},,{8}7/3qq2[6:1],4,5/3,6,
{12}7<4[12:1],{24}4,1,,3,{8}7,{24}3>8[12:1],,8,{12}5,{24}7,3,{96},,,,,,,,{32}6,5,4,3,2,1,8,7,
{12}6/4h[12:1],5h[12:1],2h[12:1],4h[12:1],3h[12:1],6h[12:1],5h[12:1],3h[12:1],1h[12:1],7h[4:1],{96},,,,,,,,,,,,,,,,{32}3,
4,5,6,7,8,1,2,{4}3/8<4[8:1],{24}4/8,,,,,2,{12}5,{24}4,7,,,{8}8/1>4[12:1],
4/6<1[12:1],1,6,{32}5,6,7,8,1,2,3,4,{4}5/7h[8:1],
{12}1,{24}1,2,,2,{12}3,{24}3,4,,4,{12}5,{24}5,6,,6,{12}7,{24}7,8h[8:1],,,{6}1p8[2:1],
{12}8,1,2,3,4,5,6,7bh[8:1],{24},,,,{8}8/1>6[4:1],
7,1/6-4-2-8[4:1],7,8p5[4:1],7,{4}6h[8:1],
{8}6>3[8:1],2q6[8:1],6,2,8p4[8:1]*<5[8:1],1,{4}8,
{8}1/8<3[4:1],2,8/3-5-7-1[4:1],2,1q4[4:1],2,{4}3h[8:1],
{8}2q8[8:1],1,2/6>3[8:1],7,6/1pp2b[24:5],2,{48}1/A4,D5,A5,D6,A6,D7,A7,D8,A8,D1,{24}A1fh[24:7],
{4},{32}2x,3,4,5,6,7,8,1,6/2,5,4,3,2,1,8,7,1/6,2,3,4,5,6,7,8,
1/5pp4[24:5],4,3,2,1,8,7,6,{4}5/3bh[8:1],{32}1pp8[24:5],8,7,6,5,4,3,2,{4}1/6bh[8:1],
{12}7,{24}7,5,,5,{12}1,{24}3,4,,2,{8}1x/7xh[12:1],{24}5,6,3,{8}4x/2xh[12:1],{24}4,3,6,
{12}5x/7x,{24}5,6,,6,{12}7,{24}7,8,,8,{12}1,{24}1,2,,2,{12}3,{24}3,4,,4,
{8}5xh[8:1]/3xq8[8:1],1h[8:1],,2,3h[12:1]/1h[12:1],2/8,{12}7/8,6/5,4/3,
{8}2/1,5/7,3/4h[12:1],1,4/3h[12:1],1,4h[8:1]/6p1[8:1],8h[8:1],
,7,6h[12:1]/8h[12:1],5/1,{24}3,4,2,1,3,4,{12}2x/5x,6/3,7/4,
{8}8/5h[12:1],1,6/7h[12:1],1,5h[8:1]/3q8[8:1],1h[8:1],,2,
3h[12:1]/1h[12:1],8/2,5/6h[12:1],8,6/5h[12:1],1,5/6h[12:1],2,
4/3h[12:1],1,{12}2/8h[6:1],3,4,6/5h[6:1],7,8,2/1h[6:1],3,4,
{24}6,5,7,8,6,5,{12}7x/4x,6/3,5/2,{24}3,4,2,1,3,5,1,8,4,6,8,7,
{12}5b,{24}5,6,,2,{12}8,{24}3,5,,1,{12}4b,{24}4,3,,7,{12}1,{24}6,4,,8,
{12}5b,{24}5,7,,2,{12}1,{24}3,5,,8,{12}4b,{24}4,2,,7,{12}8,{24}6,4,,1,
{12}2x/8x,1/7,8/6,5/7,6/4,5/3,{32}4/2,1,8,7,4,5,6,7,1/8,2,3,4,7,6,5,4,
{4}3h[4:1]/1>8[32:7],1,{32}1xv7[12:1]*v3[12:1],2,3,4,5,6,7,8,{4}1b`Cf,
E
