&title=String Theocracy
&artist=Mili
&first=0.385
&des=Kurage
&lv_5=14
&inote_5=(232)
{4},E5,C,E1,
{4},8-5[12:4]/1,,{12}3,,3>6[12:7],
{4},,4h[4:1],,
{4},4-1[12:4]/5,,{12}7,,7p2[12:7],
{4},,8h[4:1],,
{4},81,{12}2,,2qq1[12:7],,,6qq5[12:7],
{1},
{12},,3,4,,4,5,,5q4[12:10],6,,6s2[12:7],
{1},
{4}1,28,1,{12}7,,5,
{4}6V41[4:2],3,3h[4:1],,
{4}8,17,8,{12}2,,4,
{4}3V58b[4:2],6,6h[4:1],,
{4}1,28,7,68,
{12}5,,4xpp5b[12:5]/3x>6[12:5],,,,{4}Cf,,
{4}4b-8[16:3],2,{12}5-1[16:3],,5,{4}6,
{4}7b<4[12:2],{12}2,,3q4b[12:5],,,,C,,,
{4}1-5[16:3],3,{12}8-4[16:3],,8,{4}7,
{4}6>7b[4:2],2bh[4:3],,,
{4}6,7b-5[8:1]/3b,1-3[8:1],8-4[8:1],
{4}8,{12}1q6[4:1],,1,5pp4[4:2],,,{4},
{4}3-1[8:1],3,7-5[8:1],78,
{12}24,,3-7b[16:3],,,6<4[12:5],,,,B1/B8/E1,,,
{4},1b/5b,{12}4-8[16:3],,4,{4}3,
{4}2b>5[12:2],{12}7,,6p5b[12:5],,,,C,,,
{4}8-4[16:3],6,{12}1-5[16:3],,1,{4}2,
{4}3<2b[4:2],7bh[4:3],,,
{4}3,2b-4[8:1]/6b,8-6[8:1],1-5[8:1],
{4}1,{12}8p3[4:1],,8,4qq5[4:2],,,{4},
{4}6-8[8:1],6,2-4[8:1],21,
{12}75,,6,4,5,3,4,,,2b/6b,,,
{4}1-7[4:1],1xh[4:1],,2-6[12:4],
{4}2xh[4:1],,3-5[4:1],3xh[4:1],
{4},6x<1[4:1],1x>4[4:1],4x<7[4:1],
{4}7x,1xh[4:1],3xh[4:1],4xqq2[4:1],
{4}5xv6[4:1],,3-5[8:1],7-3[12:2],
{4}1,8x-6>5b[32:5]/2x-4<5[32:5],8xv5[12:2]/2xv5b[12:2],8xb/2xb`Cf,
{4},3b/4b<8[4:1],8>3[32:7],{12}3q8[32:9],,4h[4:1],
{4},2-6[8:1],1-4[8:1]/2,5w1[12:2],
{4}5xb,{12}7x/3x,,7,5-1-3b[12:4],,5,{12}6,,4b<2[12:7],
{12},,,1,,1,,,3,{4}3-6[12:2],
{12}7-5[8:1],,,4-2[8:1],,4,8-4b[12:2],,,81,,1b>8[12:7],
{12},,5,{4}5xp1[4:1],,,
{12}7-3[12:2]/3,,,78,,1-5[12:2],,,4-2[12:2]*-8b[12:2],,,A4f,
{4},7x<4[12:2]/3x,{12}2,1,8,3,2,1,
{4}8b/4b,6/5>1[4:1],1<6[32:7],{12}6p1[32:9],,5h[4:1],
{4},7-3[8:1],8-5[8:1]/7,4w8[12:2],
{4}4xb,{12}2x/6x,,2,4,3,{24}5,6,7,8,,,{12}5xbV31[12:4],
{12},,,1-7[12:2],,8,{8},6,6x-4[8:1],,
{4}2-8[8:1],{8}7-3[12:2],7,2V48[12:4],2,5,6bpp4b[8:5]`Cf,
{8},,1xq5[4:1],,{4},,
{12}36,,2,4,3,7,5,6,1,1x/8x,,2b-7b[12:2]/7b,
{12},,6,6xb<3b[12:4],,,{32}E1/B1/B8,Cf,E5,,,,,,{4},
{4}4xqq7[8:10],4xz8[8:8],,,
{1},
{12}5h[4:1],,,4,,6h[12:4],,,,{16}5,,,7h[16:5],
{4},{12}6,,8<1[12:16],,,,,2q4[12:11],,
{1},
{4},{24},,7,,,6,,,5,,6,,,,5,,4,,
{24},,,3,,4,,,,2h[12:1],,6h[12:2],,,,4h[12:3],,,,,,5xp4[8:6],,,
{1},
{4}3xp7>2pp1[8:15],,5,5,6h[8:3],,6,{12}7z3b[8:7],,,
{4},,8h[4:1],,2h[4:1],4x,4h[4:1]/5h[4:1],,
{4}7xp3<6pp5[8:15],,1,1,2h[8:3],,3h[8:3],,
{4}4,4,36,36,1b/8b,{12}3,4,2,6,5,7,1-5[12:2],,,
{12}8,,{48}7xb,E7,B6,B5,{12}E5Cf,,2,2x-5[12:2],,,1,,{48}8xb,B8,C,B4,
{12},,,36,,3>6[12:4]/6,,,,5,,5-8[12:2],
{12},,4,4x-1[12:2],,,7-3[12:2],,,8,,8>6[12:6],
{12},,4,4x<7b[12:3],,,{4}C,8-4b[12:2],
{12}1,,{48}2xb,E3,B3,B4,{12}E5,,7,7x-4b[12:2],,,8,,{48}1xb,B1,C,B5,
{12},,,63,,6>3[12:2]/3,,,,2,,2,
{12}1-5[12:2],,1,B2/E3,,,8-4[12:2],,8,B7/E7,,,
{12}1-5-7[8:3],,1,4-2[8:1],,,{4},{12}1,8,1,
{4}8w4[8:1],8b`Cf,2h[4:1],{12}4-6b[8:1],,4,
{8}3qq4b[12:7],,{12}7,,7<4b[12:2],,,,B4/B3/A4/E4f/A3/D4,,,
{4}6-8[8:1],5,{12}4-2[8:1],,4,{4}5,
{8}6pp5b[12:7],,{12}2,,2>5b[12:2],,,,B5/B6/A5/E6f/A6/D6,,,
{4}3-7[12:2],4b,{12}6-2[12:2],,6,5>1[4:1],,,
{4}1<6[4:1],6s2[8:3],4-2[8:1],,
{4}1x-5b[12:2],1b,2x>5[8:1]/8x<5[8:1],2b/8b,
{12}7,3,6,4,5,5w1[12:2],5x,,{48}B5,Cf,B1/B2/B8,,{4},
{1}4xz8>1s5[4:13],,,,
{1}2V85[4:5]/7V14[4:5],,
{4}3p6[4:2],7>2[8:3],,,
{12}4,,5,4,,,45,,3h[24:5]/6h[24:5],,,,
{4}3b/6b,45,75,42,
{4}7-5[8:1],2-4[8:1],8-4[8:1],1-5[8:1],
{4}6<4[8:5],3,5,5,
{16}1x,2x,3x,4x,8x,7x,6x,5x,2,3,4,5,6,7,8,1,
{4}2b-4[8:1]/6b,12,1-5[12:2],81,8-4[12:2],78,7-5[8:1],78,
{12}2,4,3,7,5,6,{8}1,{12}1b-5b[12:2]/5b,,{24},7bh[24:28],{32}B1,Cf,B5,,
{24},,,,,,{4},{8}3,3h[8:3],,,
{4},6xb/5xb>1[4:1],1<6b[32:7],{12}6p2[32:8],,5h[4:1],
{4},7-3b[8:1],1-5[8:1]/7,4w8[12:2],
{4}4xb,{12}2x/6x,,2,4-8-6b[12:4],,4,{12}3,,5b-2-7[12:6],
{12},,,8,,8,,,6,{4}6-3b[12:2],
{12}2-4[8:1],,,5-7[8:1],,5,1-5b[12:2],,,18,,8b<1[12:7],
{12},,4,{4}4xq8b[4:1],,,
{12}2q6[12:2]/6,,,21,,8-4[12:2],,,5-7[12:2]*-1b[12:2],,,A5f,
{4},2x>5[12:2]/6x,{12}7,8,1,6,7,8,
{4}1b/5b,3/4<8[4:1],8>3b[32:7],{12}3q7[32:8],,4h[4:1],
{4},2-6b[8:1],8-4[8:1]/2,5<1[4:1],
{4}1xb>5b[4:1],{16}5,6,7,8,1xb,2,3,4,{8}5x/1x,3b/7b,
{12},,2,4-6[8:1],,4,1-5[12:2],,1,8,,,
{4}7-1[8:1],{8}3-7[12:2],3,6V84[12:4],6,1,2bpp8b[8:5]`Cf,
{8},,5xq1[4:1],,{4},,
{12}63,,7,5,6,2,4,3,8,8x/1x,,7b-2b[12:2]/2b,
{12},,3,3xb>6b[12:4],,,{32}E1/B8/B1,Cf,E5,,,,,,{4},
{4}5xpp2[8:10]*s1[8:10],5x,,,
{4},,,{24},,,,,4,
{24},,5,,,3,,,4,,,2,,,2,,,8,,,1,,,7,,,8,,,6h[4:1],,,,,,2h[24:49],{4},,
{4}4v2<6[4:5],,,,,,,8<1[4:5],,,,,,E4,E5,E6,
{4}6xq2V85qq4[8:15],,4,4,3h[8:3],,3,{8}2,1p8b[8:7],
{4},,5h[4:1],,7h[4:1],1x,1h[4:1]/8h[4:1],,
{4}2xq6V41qq8[8:15],,8,8,7h[8:3],,7,{8},6>3[8:5],
{4},,1h[4:1],,
{12}2h[4:3],4-8-5-7[12:8],,{4},,,
{4}1-5[4:1],,,1-4[4:1]*-6[4:1],
{4},,1w5[16:5],,
{4},7<4[8:3],5>2[8:3],3>1[8:2],
{4}1,7h[4:1],5h[4:1],A3,
{4}C,A7,18,12,23,{12}4,3,5,4,6,5,7,6,8,
{1}7b-5>4>3-1v4v7[4:13],,,,
{1}8v1[16:9],2q7[16:11],6>3[4:3],C,
(116)
{1}2V85[4:5]`7V14b[4:5],,
{1}3qq5[12.428#256:101],
{1}6pp4b[21.75#64:44],
{1},,,,,,
