&title=Oracle
&artist=葉月ゆら
&first=0.01
&des=おにねこ
&des_5=NekoMuseigen
&wholebpm=156
&MusicStart=33.7
&MusicEnd=59.7
&lv_5=13
&inote_5=(156)
{1},
{4}4h[4:3]/6,,1h[4:3],,8h[4:3],,3h[4:10],,6h[4:8],,,,,,,,,,,,
{8}
1V72[16:5]/7,,5,5-3[8:1],,,2-6[8:1],,
8V27[16:5],,4,4-6[8:1],,,7-3[8:1],,
2V84[16:5],,5,5-7[8:1],,,
2,2-4[8:1],5,2-5[8:1],6,2<6[32:7],,,,,
5V36[16:5]/3,,8,8-2[8:1],,,7-3[8:1],,
4V63[16:5],,1,1-7[8:1],,,2-6[8:1],,
5V37[16:5],,8,8-2[8:1],,,
6,6-4[8:1],3,6-2[16:2],1,6,,
{16}3,5,4,6,5h[8:2],,
{8}
7h[8:1],,75,4h[8:2],6h[8:1],,64,3,24,6,24,7,2-7[8:1]/4,8,24,,
6h[8:1],,68,1h[8:2],7h[8:1],,17,2,83,2,16,7,28,3,4/6h[8:3],,
2h[8:1],,26,5h[8:2],3h[8:1],,35,6,75,3,75,2,7-2[8:1]/5,1,75,,
3h[8:1],,31,8h[8:2],2h[8:1],,82,1/7-3[8:1],,4h[16:6],,,{16}6,4,5,3,4b-8[8:1],,,,
{8}
2-5[8:1],,1-6[8:1],1,4-2[8:1],,5-1[8:1],,
2-4[8:1],,8-6[8:1],8,4-1[8:1],,5-8[8:1],,
1-3[8:1],,7-5[8:1],7,4-8[8:1],,5pp8[4:2],,1,,2,,3>7[16:4],{16}6,,,6,,,
{16}
5-1[8:1],,,,5,,,,2-5[8:1],,,1,2,,8,,
8<4[8:2],,,,4,,,,3-8[8:1],,,4,3,,6,,
7<4[8:2],,,,4>1[8:2],,,,1<6[8:2],,,,6pp7[16:4],,,,
2,,,,3,,,,34,,3,4,2,5,1,6,
{8}
8-4[8:1],,7-5[8:1],7,3-8[8:1],,4-7[8:1],,
1-3[8:1],,7-5[8:1],7,4-1[8:1],,5-8[8:1],,
2-4[8:1],,8-6[8:1],8,5-1[8:1],,5pp4[8:3],,4,,3,,2>6[8:2],{16}1,,,1,,,
{16}
8-4[8:1],,,,78,,,,6-2[8:1],,,5,6,,4,,
4>8[8:2],,,,1,,,,7-4[8:1],,,8,7,,1,,
2-5[8:1],,,,4,,6,,8-5[8:1],,,1,8qq3[8:3],,2,,
8,,,,4>6[16:5],,,,4,,,,5b,,,,
34,,12,,78,,56,,3,4,2,5,1,6,8,7,
1b>4[16:2],,,,7q3[16:2],,7,,5>2[8:1],,5,,7,,7,,
6<3[8:2],,,,3>6[8:2],,,,5,,4,,3h[8:2],,,,
4<7[8:1],,,,1>4[16:2],,1,,8-4[8:1],,8,,3,,3,,
2z6[8:2]/6,,,,6,,,,5w1[8:1],,,,5,,,,
2qq3[16:5],,,,2/6qq7[16:5],,,,6,,,,8-4[8:1],,1,,
2,,,,5<8[8:1]/3>8[8:1],,35,,,,,,2>5[8:1],,5,5,
2b,,,,8<5[8:1],,5,5,8b,,,3,4,,2,,
51,62,73,84,15,,7bw3[8:1]/3b,,,,7b,,,,,,
6<1[16:2],,,,4p7[16:2],,4,,5q2[8:1],,5,,3>8[8:1],,3,,
6pp5[8:3],,,,5,,,,3,,2,,1,,1,,
5<8[8:1],,5,,2>5[16:2],,2,,7>2[8:1],,7,,4<7[8:1],,4,,
7p3[8:1]*q3[8:1],,,,,,,,1w5[8:1],,,,1,,,,
4/6pp5[16:5],,,,6/4qq5[16:5],,,,4,,,,8,,8,,
3-6[8:1],,,,7-4[8:1],,7,,2-6[8:1],,2,,8-4[8:1],,8,,
1,,1h[8:2],,5,,5h[8:1],,
2,4,3,,7,5,6,,
5-8[8:1]/4-1[8:1],,,,,,,,,,1,8,2>4[12:1]/7qq6[16:3],,,,
{4}
2b<8[12:1]/7b,2,
5>3[12:1],7qq6[16:3],
7>1[12:1],2pp3[16:3],
2<8[12:1],6pp5[16:5],
6,2>4[12:1],
7<5[12:1],2-8[12:1],
{8}2-6[8:1],6,2-4[12:1],
8,2,,6-1[8:1]/3-8[8:1],,
{4}6b-4[8:1]/3b,3-1[8:1],
3-5[8:1],6pp6[8:2],
6-4[8:1],2pp2[8:2],
2-8[8:1],6p4[16:5],
6,2bq5[16:5],
2,8b,
{16}4,5,3,6,2,7,1,8,
{32}
2,3,4,5,6,7,8,1,
2,3,4,5,6,7,8,1,
{4}2z6[4:6]/6,,5,,4,,3,,
2/6z2[4:6],,1,,8,,7,
{16},6,,,,,,
{4}6b-2[4:5]/5bs1[4:10],,,,,,,
