&title=赤
&artist=Daily天利&Roon_kun
&first=0
&des=NaOH
&clock_count=4
&lv_5=14
&inote_5=(200){4},,,,,,,,
{8}2h[8:3],,,4h[8:3],,,3,,3qq8[4:3],,,,7,,6,,
5h[8:3],,,1h[8:3],,,7h[8:3],,,3^1-5[4:2],,,8,,7,,
6h[8:3],,,4h[8:3],,,7,,7pp4[4:3],,,,3,,2,,
1h[8:3],,,7h[8:3],,,3h[8:2],,5,,46,,7v5[8:1]/3v5[8:1],,,,
1V35[4:2],,,6,6,,7,,8V64[4:2],,,3,3,,2,,
1,1h[4:1],,4,4h[4:1],,5,5-1-3[8:3],,,6,7,8-6[8:1]*-4[8:1],,,,
3,3^5[4:1],,6,6,,7,7,8,8<5[4:1],,4,4,,3,3,
2x/4x,24,,5x/7x,57,,6,57,8b-5^7[4:2]b/4b-1^3[4:2]b,,,,,,,,
2,4,3,5,4-1[8:1],,6,,7,7,5,5,6,6,57,,
8xh,8,6xh,6,4xh,4,2xh,2,6xh,5,4,3,2>5[8:1],,,,
7h[8:1]/E3,,7h[8:1]/E1,,7h[8:1]/C,,7h[8:1]/E5,,
6h[8:1]/E4,,6h[8:1]/E3,,1V35[4:1]/6,,,,
7,7,28,28,37,37,
6<5[4:2]/4,4qq5[8:3]b/6,,,,,,,E1f/B8/B1,,
3x,4x,25,4,5,36,4,6,5-2[8:1]/7,,7-4[8:1],,1V38[4:1],,8x,7x,
6x,5,47,3,4,25,3,3,
2-4[8:1]/4-6[8:1],,4-8-3[4:1]b/2,,7<4[8:1],,7,,
2-4z8[4:2],,7,,6,,5,,4-8[8:1],,4/1>6[4:1]*q6[4:1],,A1f/E1/E2,,,,
3h[16:1]/4h[16:1],3h[16:1]/4h[16:1],2b/5b,,5h[16:1]/6h[16:1],5h[16:1]/6h[16:1],4b/7b,,
8<2[4:2]b/1p1[4:2]b,,,,,,,,
6x-1[8:1],,2-5[8:1],,7-4[8:1],,3-8[8:1],,6-1[8:1],,5-2V84[8:3],,8,7,7-4[8:1],,
3xh[4:1],,1-5[8:1],8,7h[4:1],,4-1[8:1],5,6-4[8:1],,36,,{16}2,6,2,6,2b,,,,
{8}2x-5[8:1],,8V61[4:1],,1-5[8:1],,2,3,4-1[8:1],,6,7x<2[4:1],8xv1[8:1],,,,
7xz3[4:1]/Ch[4:3],,,,,,,,1s5[4:1]/8z4[4:1],,,,,,Cf,,
6x-4[8:1],6,3,2,1x-5[8:1],1,6,7,8x<5[8:1],8,3,2,1>5[4:1],,5<1[4:1],,
1x>1[4:2],,C,,1x>1b[4:2],,C,,1x-3-5-7[8:3],,C,,8xw4[8:1]b,8x,,,
2x-5[8:1],2,6,7,8x<5[8:1],8,3,2,1x-5[8:1],1,6>8[16:5]*-3-8[16:5],6,,,,,
{16}2,3,4,5,8,7,6,5,1,2,3,4,56,7,8,1,
{32}B4,B3,B2,B1,B8,B7,B6,B5,E4,E3,E2,E1,E8,E7,E6,E5,E4,E3,E2,E1,E8,E7,E6,E5,E4f,,,,,,,,
{8}
6x-4[8:1],3,6,2-5[8:1],6,2,7-3[8:1],1,7,1>4[8:1],8,1,7-5[8:1],8-4[8:1],7,8,
6^3[8:1],2,6,1-5[8:1],8,1,7-4[8:1],8,7,2-5[8:1],1,2,8,37,{16}4,6,4,6,
{8}3-5[8:1],5,3V15[4:1],7,3,6,7-4[8:1],3,7V15[4:1],2,7,3,2-4[8:1],1,2,8,
{4}7h[4:1]/3,5h[4:1],1h[4:1],3h[4:1],4v2^7[4:3]b,,,,
{12}3x,,,E4,B4,B5,E6/8,,,7x,,,E8,B8,B1,E2/4,,,
4x,,,E4,B3,B2,E2/7,,,8x,,,E8,B7,B6,E6/1,,,
2x,,,E3,E4,E5,E6/8,,,7x,,,E7,E6,E5,E4/1,,,
1h[4:1],,,{24}E4,B4,B5,E6,,,{4}3x,4x-8[4:1]b/5x,,,
{4}
6^4^6[4:2],3,2,2^4^2[4:2],5,6,7-4-8[4:2],4,3,2h[4:2],B1/E1,{8}7,6,
{4}
5^7^5[4:2],4,3,2^4^2[4:2],8,7,6v8<4[4:3],3,2,1h[4:2],,,
{4}
7^5^7[4:2],3,2,1^3^1[4:2],5,6,7^1-5[4:2],2,3,4h[4:2],B6/E6,{8}8,7,
{4}
6h[4:2],5,4,35,26,17,6-2<3[4:4]b/2,,,,,,
{4}
4xh[4:2]/5x-1[4:1],,,2>5[4:1],5<8[4:1],8>3[4:1],3^6[4:1],6p1[8:3],{8}8,7,6h[4:1],,,,
2,3,4V28[8:3],,8,,6,,5V71[8:3],,1,,3,,4,,4^2^8^6[4:3]*-2-8-6[4:3],,,,,,,,,,
{4}
6xh[4:2]/5x-1[4:1],,,7<4[4:1],4>1[4:1],1<6[4:1],6^3[4:1],3q8[8:3],{8}1,2,3h[4:1],,,,
5,6,7b/Cf,,,,,,2b/A8f/B8,,,,,,
{4}6bp6>2[4:4]b*q6<2[4:4]b/A2f/E2/E3,,,,,,
{4}34,24,14,56,57,58,{8}7,7,5,5,6,5,7^4[8:2]/4,,,,1,2,
{4}34,24,15,78,56,34,{8}3,4,2,4,1,4,1V35[4:1],,5,,7,,
{8}8,2h[8:1]/8h[8:1],,3h[8:1]/7h[8:1],,46,4h[8:1]/6h[8:1],,
3h[8:1]/7h[8:1],,4h[8:1]/8h[8:1],,
{4}7p4[4:2]/5,3,2,1pp4[4:2],5,6,
{8}6,6,57,57,48,48,37,37,26,26,15,15,
{16}2,6,2,6,3,7,3,7,4,8,4,8,
{4}4>8[4:1],{24}8w4b[8:1],7,6,5,,,A8f/D8/D1,,,,,,
{8}
2v5[8:1],5V38[4:1],2,8,7-5^4[8:1],,17,,{16}2x,1,8,7,6,5,4,3,
7b-3[8:1]/2b,,,,27,,8b>5[4:1],,,,5,,7b-3[8:1]b,,,,2h[4:1],,,,4,5,6,7,
{8}8-4[8:1],4V61[4:1],8,1,2-4^5[8:1],,27,,{16}7x,8,1,2,3,4,5,6,
{32}7b/1b,2,3,4,5b,,,,,,,,2b/8b,7,6,5,4b,,,,,,,,
1bxs5[4:1]b,28,7-3-7[4:1]/3,46,5bx,,,,{8},,,,
2-5[8:1],5^2[8:1],2V84[4:1],6,7^4[8:1],,17,,{16}2x,1,8,7,6,5,4,3,
{8}2b-6[8:1]/7b,,26,7b-3[8:1],,1s5[4:1]/7,8z4b[8:1],,,,3x,2,
1h[8:1],,2h[8:1]/8h[8:1],,3h[8:1]/7h[8:1],,
5h[8:1],,4h[8:1]/6h[8:1],,3h[8:1]/7h[8:1],,
{16}4,6,4,6,3,5,3,5,2,4,2,4,1x-5[8:1],,,,1xw5[8:1]b,,,,1b,,,,
2b,6,2,6,3,7,3,7,4,8,4,8,4b,3,2,1,7b,6,5,4,1b,2,3,4,
5b/6b-1[8:1],,,,3,4,5bV31[6:1],,,,8,7,6b-1-5[4:1],,,,{24}5xw1[8:1]b,4,3,2,,,,,,,,,
{16}7b,3,7,3,6,2,6,2,5,1,5,1,5b,6,7,8,2b,3,4,5,8b,7,6,5,
{32}2bx,3,4,5,6,7,8,1,2bx-6[8:1],3,4,5,6,7,8,1,,,,,,,,,
{32}7bx,6x,5x,4,3,2,1,8,7bx-3[8:1]b,6,5,4,3,2,1,8,,,,,,,,,
{16}2b,6,3,7,4,8,3,7,2,6,1,5,2b,3,4,5,8b,7,6,5,3b,2,1,8,
5b-8[8:1],,,,3,2,1bV37[4:1],,,,4,5,6bh[4:1],,,,
{24}8b,1,2,3,,,7b/3b,26,15,48,,,
{8}4,4,35,35,26,26,8,8,17,17,26,26,{16}1,8,3,6,2,7,4,5,3,6,1,8,
{24}2,3,4,8,7,6,1-5[8:1],2,3,7,6,5,1b,,,,,,
{8}3,4,2,5,3,4,2h[4:2]/5,,,8,8,,6,5,7,4,6,5,7h[4:2]/4,,,1,1,,
4qq5[4:2]/6,,E6/B6,,B7/E8,,6pp4[4:2],,E4/B4,,E2/B1,,3q5[4:2],,B5/E6,,E8/B8,,
8x,8x,17,26,3b/5b,,
3,24,3,14,3,15,6,57,6,58,6,48,
17,{24}2b/8b,3,4,5,,,2b/8b,7,6,5,,,1b/7b,26,3qq4[8:3]/5pp4[8:3],4,,,,,,,,,,,,,,,,,,
{4}1s5[4:8]*-7-3-5[4:8],,,,,,,,,
