&title=Final Flash Flight
&artist=Camellia
&first=0
&lv_5=14
&des_5=Guilty
&inote_5=
(180){4},{24},,,,,,,,,,,,,,,,,,7h[2:3]/B3,
B4,{12}E5,,,,,,,,,,,{1}5h[2:1],
6h[2:3]/E5,
{8}4h[2:1],{24},,,,,,,,,,,,,,,,,,E3,B2,B1,
{1}5xh[2:3]/E1,
3h[2:1],
4h[2:3]/E3,
{2}2,{24}A3,E4,E5,A6,E6,E5,A2,E3,B3,A7,E7,B6,
{2}1-5[8:1],{8}8,7,6,5-8[8:1],
,,,4,3,2,1,6<3-1-7-5[8:7],
,,,4h[4:1],,,,4h[4:1],
,,4,{16}4,5,{8}3,6,7,2,
1/8-4[8:1],,,2,1,8,7,6-2[8:1],
,,,5,4,3,2,1-3-5-7<2[8:7],
,,,8h[4:1],,,,8,
{4}7h[8:1],1/6h[8:1],2/5h[8:1],4/3h[8:1],
{2}2v5[8:1]*-8[8:1],{8}7,6,5,4-2[8:1]*V68[8:1],
,,,1,2,3,4,6<4-2-8-6[8:7],
,,5,5h[4:1],,,5,5h[4:1],
,,4/6,{16}3,3,{8}4v5[8:1],2,{4}1h[4:1],
{2}6-8[8:1]*v3[8:1],{8}2,1,8,4-7[8:1]*-6-1[8:1],
{16},,,,,,2,2,{8}8,7/3,6/4,5,
{4}6/4>6[2:3],,,E5,
E5,E5,E5,E5,
{16}5,3,5,3,6,2,6,2,7,1,7,1,8,7,6,5,
4/8,3,2,1,8/4,7,6,5,{2}4h[4:1]/3h[8:1],
{16}2/4,,,2,{8}E5,2,{16}6/5,,,6,{8}E5,6,
{16}3/4,,,3,{8}E5,3,7/4,6,5/3,4,
{4}2h[4:1],{8}5,4,7h[4:1],B4,B5,1h[4:1],
6,3,8h[4:1],6,5,4,3,8/2,
{16}1/7,,,7,{8}E2,7,{16}3/5,,,3,{8}E7,3,
{16}5/1,,,5,{8}E3,5,1/6,8,7/1,6,
{4}1/5xh[4:1],{8}3,3,6xh[4:1],E3,E4,E5,
7xh[4:1],8,{16}8,1,2,3,4,6,6,5,{4}7b,
{16}8/2-4[8:1],,,7,{8}2,6,{16}5-1[8:1],,,4,{8}5,3,
{16}8/2-4[8:1],,,7,{8}2,6,5,6/4,6,2/7,
{4}1-3[8:1],{8}4,5,1-7[8:1],6,6,5,
1-3[8:1],5,5,4,1-7[8:1],4,4,5,
{16}6-8[8:1],,,3,{8}6,2,{16}1-5[8:1],,,8,{8}1,7,
{16}4/6-8[8:1],,,3,{8}6,2,1,8/2,7/3,6/4,
{4}5h[4:1],{8}3h[4:1],4,6h[4:1],5,2h[4:1],4,
5,{16}3,3h[8:1],,4,{8}4h[8:1],{16}5,5h[8:1],,6,{8}6h[8:1],3x,
{2}3h[2:1],{16}1,8,7,6,4,3,2,1,
7,6,5,4,2,1,8,7,{4}C/B5/B4,{8}8/1,7/2,
3h[4:1],{32}D2,D1,D8,D7,,,,,{8}B1/E2/B2,{4}B6/E6/B5,7xs3[4:1],
A5/D5/A4,2xz6[4:1],A8/D1/A1,7x,
{8}6,6h[8:3],{16},,,,4,3,2,1,7,6,5,4,
8,1,2,3,6,7,8,1,{4}B5/C/B4,{8}7/2,1,
6h[4:1],{32}D8,D1,D2,D3,,,,,{8}B8/E8/B7,{6}B3/B4/E4,{12}A7/E8,E2/A1,E6/A5,A3/E4,
{2}Ch[2:1],1b,
{4}5/4,5-8[2:1],,4,
,4-1[2:1],,5,
,5<8[2:1],,4,
,4>1[2:1],,5,
,5<2[2:1],,B5/B4,
,4>7[2:1],,B5/B4,
,5<4[2:1],,B5/B4,
{2}1xh[16:7],{32}A3,E4,E5,A5,D3,B3,B5,D6,A2,B2,B6,A6,D2,B1,B7,D7,
{8}C,8x,8x,1,1-3[8:1],7,{4}7h[8:1],
{8}6,6,2,2,4-6[8:1],4,8,8,
1,1,5,5,3-5[8:1],3,7,7,
6,6,4qq3[4:1],4,{2}4<7[8:1],
{8}3-1[8:1],3,5-3[8:1],5,7-5[8:1],7,1-7[8:1],1,
4-2[8:1],4,6-4[8:1],6,8-6[8:1],8,2,2,
{16}1,5,3,4,2,5,1,6,8,7,1,6,1,8,2,7,
8b/1b,,,D4/A3/A6/D6/E6h[16:3]/E4h[16:3]/B5h[16:3]/B4h[16:3],{64},,,,,,,,B6,B3,B7,B2,E8,E2,{32}A1/A8,,,,,,,,,,,,,,,,,{8}2/7v4[8:1],
3,7/4-6<1b[4:1],3,{16}E2,E3,E4,E5,{4}A6h[4:1]/A5h[4:1]/E6h[8:1],
B8/B7,4x/3x<6-8b[4:1],{16}D1,D2,D3,D4,{4}A5h[4:1]/A4h[4:1]/E5h[8:1],
E7/B7,1/2,{16}2,1,8,7,3,2,1,8,
4,3,2,1,8/4,7,6,5,{4}4-1[8:1]/8-5[8:1],4/8,
{8}7/2v5[8:1],6,{4}2/5-3-8b[4:1],{16}8,7,6,5,{4}4h[8:1],
{8}2,{16}7,8,7,1,6,2,5,3,4-8[8:1],3,{8}4,2b,
{16},,2,2,{8}1,{16}3,3,4,5,6,7,2,3,4,5,
{4}8<5[8:1]*>3[8:1],8-4[8:1],{16}8,,,3,,,{8}1b/7b,
{4}4b/3bh[4:1],1-7<4b[4:1],{16}E4,E3,E2,E1,{4}A8h[4:1]/A7h[4:1]/E8h[8:1],
B3/B4,6x/5x-3>8b[4:1],{16}D8,D7,D6,D5,{4}A4h[4:1]/A3h[4:1]/E4h[8:1],
{16}E7,E8,E1,E2,{4}6h[4:1]/E3,{16}E6,E5,E4,E3,{4}7h[4:1]/E2,
{16}1,2,3,4,5/1h[16:3],,,5,,4/8,,3/7,,3h[16:1]/7h[16:1],,,{2}4qq3[4:1],
{16}5,6,7,8,1,2,{8}3qq2[4:1],
{16},,,,,,,,4,5,6,7,8,1,{8}2b,
{16}4,5,3b,5,4,5,2b,5,4,5,1b,5,4,5,{8}8b,
8b,1b/7b,2b/6b,3b/5b,,,{4}E5,
{16}2/6-8[8:1],,,3,{8}6,4,{16}8/5-3[8:1],,,6,{8}5,7,
{16}2/6,,,1,{8}8,2,7/3,3/6,3/5,3/4,
{4}3h[4:1],{8}4,{16}3,4,,5,{8}4,{16}2,4,,6,
{8}4,{16}1,3,,8,{8}6,{16}1,8,1,8,{4}2b,
{16}7/3-1[8:1],,,6,{8}3,5,{16}1/4-6[8:1],,,3,{8}4,2,
{16}7/3,,,8,{8}1,7,6/2,6/3,6/4,6/5,
{4}6h[4:1],{8}5,{16}6,5,,4,{8}5,{16}7,5,,3,
{8}5,{16}7,6,5/2,3,4,5,{32}8,7,6,5,4,3,2,1,{4}8/Cf,
{8}1,1,{4}1b/8b,{16}2/6-1[8:1],,,3,{8}6,4,
{16}8/5-2[8:1],,,6,{8}5,7,8/1,8/2,3/7,7/4,
{4}6h[4:1],{8}5,{16}6,5,,5,{8}4,{16}4,2,,2,
8x,1,8x,2,8x,3,8x,4,8x,5,8x,6,{4}8b,
{16}2/7-4[8:1],,,1,{8}7,8,{16}7/3-8[8:1],,,6,{8}3,5,
{16}1/4-7[8:1],,,3,{8}4,2,1/8,1/7,6/2,3/5,
{2}4<1[4:1],{8}3,4,5,8/6<1-3[4:1],
,,,,4,5,6,1/7-5[8:1],
,,2,{16}2,3,{8}4,7-1[8:1],2,{16}2,3,
{8}4,7-5[8:1],2,{16}2,3,{8}4,4,5,5,
{2}4-2-8[4:1]/6-4[8:1],{8}4,5,6,7>1[8:1]/1>5[4:1],
,,,1x,8,7,6,5/3h[8:41],
{32},,,,E4,B4,B5,E6,{4}A6h[4:19],
E
