&title=Sphalerite
&artist=RYOQUCHA & CS4W
&first=-0.01
&des=Charholer
&lv_5=14+
&inote_5=(230){4},,,,
{4}Ch[4:1]/B2/B3/B6/B7/E3/E7,,
{16}E1,E2,E3,E4,E5,E6,E7,E8,
{4}E1/5hx[2:5],,,,,,,,
{4}4h[2:3],,,,
{8}7h[2:7],,,,,,2,2,
{4}2<4[4:6],,,,,,,,
{4}3h[1:1],,,,2h[4:2],,1h[4:2],,
{4}8-5[4:2],1,2,3,4-1[4:2]*-1[4:2],5,6,7,
{4}8<5[4:2],1,2,3,4>1[4:2]*>1[4:2],5,6,7,
{8}8,1,8,1,7,2,7,2,
{8}6,3,5,2,6,1,7,2,
{8}8,8,5,5,6h[16:1],6h[16:1],4h[16:1],4h[16:1],
{8}3h[16:1]/5h[16:1],3h[16:1]/5h[16:1],2h[16:1]/6h[16:1],2h[16:1]/6h[16:1],
{16}1h[16:1]/7h[16:1],,1h[16:1]/7h[16:1],,8,1/7,2/6,3/5,
{4}4bw8[4:6],,,,,,,,
{4}6/3,{16}4,5,4,5,4,5,4,5,4,5,4,5,3,6,3,6,2,7,2,7,
{4}1,1b/8b,
{8}2b/6b-2[8:1],,6,8hb[8:3],,,{32}B8,C,B4f,,,,,,
{8}7b/3b-7[8:1]*-7[8:1],,3,1hb[8:3],,,{32}B1,C,B5f,,,,,,
{8}2-8[8:1]*-8[8:1],,,7-3[8:1],,,4-6[8:1]*-6[8:1],,,1-5[8:1],,,
{32}A2,D3,A3,D4,A4,D5,A5,D6,A6,D7,A7,D8,A8,D1,A1,D2,
{8}6b/2bx-6[8:1]*-6[8:1],,2,1hb[8:3],,,{32}B1,C,B5f,,,,,,
{8}3b/7b-3[8:1],,7,8hb[8:3],,,{32}B8,C,B4f,,,,,,
{8}7-5[8:1],,,8-4[8:1]*-4[8:1],,,1-3[8:1],,,5-1[8:1]*-1[8:1],,,
{16}8h[32:1],7h[32:1],6h[32:1],5h[32:1],{4}4b/8b,
{4}6h[4:3]/3,3,3,3,5h[4:3]/2,2,1,{8}1,8,
{4}2h[4:3]/7,7,6,6,3h[4:2]/5,4,2,{8}1/2,1/8,
{8}7/8,7,7/6,7,7/1,7,{16}6,5,6,,
{8}2/1,2,2/3,2,2/8,2,{16}3,4,3,,
{16}8,1,8,1,7,2,7,2,6,3,6,3,
{32}5,4,3,2,1,8,7,6,
{4}5-1[8:5]/4,{8}3h[32:1],3,{16}5-1b[8:1],4,5,,{4}C,
{4}7hb[16:17],,{16}8,E8,E7,A6,,,1,B1,C,B5,,,2,E3,E4,A4,,,8,1b,{4}8,
{8}4-8[8:1]/6,,1-4[8:1]*-6[8:1]/4,,1b,,
{8}2-5[8:1],2,8-4[8:1],8,1<6[8:1]*>4[8:1],,1b,,C,,
{8}5-1[8:1]/3,,8-5[8:1]*-3[8:1]/5,,8b,,
{8}7-4[8:1],7,1-5[8:1],1,8<5[16:3],,{16}8b/4,3,2,1,4,3,2,1,
{8}3-7[8:1]/8,,1-4[8:1]*-6[8:1]/3,,1b,,
{8}2-6[8:1],2,8-4[8:1],8,1p5[8:1]*q5[8:1],,1b,,C,,
{8}3/6,3/6,2-5[8:1]/7-2[8:1],,2b/7b,,3-6[8:1]/8-5[8:1],3/8,
{16}3/8,,,,3,4,3,,2,,6,5,6,,7/4,,
{8}3/8-4[8:1],,6-1[8:1]*-3[8:1]/8,,6b,,
{8}2-5[8:1],2,6-2[8:1],6,1<6[8:1]*>4[8:1],1,1b,,C,,
{8}6/1-5[8:1],,3-8[8:1]*-6[8:1]/1,,3b,,
{8}7,8/6,,3,2/4>1[16:3]*>1[16:3],,{16}4b/8,7,6,5,8,7,6,5,
{8}4/7-3[8:1],,7/2-5[8:1]*-7[8:1],,2b,,6/3,6/3,
{16}E4,B3,B2,E2,E6,B6,B7,E8,
{8}8hx[24:5]/4h[24:5],,{24}3/7,2/6,1/5,,,,
{8}6/2,6/2,7v6[8:1]/3v2[8:1],,7b/3b,,5v8[8:1]/1v4[8:1],5/1,
{16}5/1,,,,6,5,6,,7,,3,4,3,,2/5,,
{16},,,,1,8,1,8,1,8,1,8,1,8,1,8,2,7,2,7,3,6,3,6,
{4}4w8[8:1],4b,
{8}2/6,3/5,4,,
{8}6h[8:1],5,6h[8:1],5,7h[8:1],4,8h[8:1],3,1h[8:1],2,8h[8:1],3,
{16}7,,4,5,3,,,,
{8}2h[8:1],1,2h[8:1],8,1h[8:1],7,8h[8:1],6,
{32}A1,D2,A2,D3,A3,D4,,,
{32}A8,D8,A7,D7,A6,D6,,,
{8}3,2/4,1/5,8,7,6,7,8,
{16}1b/5b,,2,4,2,,7,5,7,,3h[32:1],4h[32:1],2h[32:1],,6h[32:1],5h[32:1],
{8}7h[32:1],,2-5[8:1]/1,2/1,,6-2[8:1],6,,1b-6[8:1],1,,3b-7[8:1],3,,
{32}A5,D5,A4,D4,A3,D3,A2,D2,
{8}1x-5[8:1]*-5[8:1],,6/1b,,2-4[8:1]*-4[8:1]/7,7,7/2b,,
{8}6/8-4[8:1]*-4[8:1],,6/8b,,1-3[8:1]*-3[8:1]/5,5,5/1b,,
{8}8-4[8:1]/4,,4/8b,,7-5[8:1]/3,3,3/7b,,2/1-5[8:1],,2/1b,,8-6[8:1]/3,3,3/8b,,
{8}5,4,3/8,1,2,3,2,1,
{16}8b/4b,,7,5,7,,2,4,2,,6h[32:1],5h[32:1],7h[32:1],,3h[32:1],4h[32:1],
{8}2h[32:1],,1,3/8,,8,1/6,,2<5s1[8:5]/7>4z8[8:5],,{4},,,
{4}Ch[1:3],,,,
{4}1v4[4:1]*v4[4:1],,,,
{4}5v3[4:1]*v3[4:1],,,,
{4}2>2v7[4:3]*>2v7[4:3],,,
{16},B5,B4,E4,
{4}3x-5-7-1-3b[4:7],,,,,,,,
{4}6x-4-2-8-6[4:7],,,,,,,,
{4}2pp5b[4:3],,,,
{4}7qq4[4:3],,,,
{4}1>1v4b[4:6],,,,C,,,,
{4}5/6,6,6,{16}4,5,4,5,
{4}3,3,3,{16}5,4,5,4,
{4}7,7,7,{16}4,5,4,5,
{4}2,2,2,{16}5,4,5,4,
{8}6,6,3,3,7,7,2,2,
{8}5,6,4,3,6,7,3,2,
{16}7,2,7,2,7,2,7,2,
{16}8,1,8,1,8,1,8,1,
{24}7,6,5,4h[8:1],,,1,2,3,4h[8:1],,,
{32}8-4[8:1],7,6,5,4,3,2,1,
{4}8/B4/B8/Cf,
{8}1-7>8-3b[4:2],,,,3<6[4:1],,6q7>4b[4:4],,,,,,Cf,,,,
{8}8v2<1-5b[8:3],,,5<1[8:3],,,1q3<7b[4:3],,,,,,1,2,3,,
{8}4b/6b,5,5,4/2,1,1,8/2,7,
{8}6b/4b,3,3,8/2,7,7,6/4,,
{16}8b/3b,,2,1,2,,1/6,,7,8,7,,1,,6,,
{16}5b/2b,,3,4,3,,4/7,,7,6,5,4,1,2,3,4,
{4}5/1qq5[4:4],4,4,3,3,2,2,{8}1,1,
{4}4/8pp4[4:4]*pp4[4:4],4,5,5,6,6,{8}7,7,2,2,
{8}5/4,3,5/4,6,3/5,2,{16}7,1,7,1,
{8}7,6,5/4,3,6/4,7,{16}2,8,2,8,
{16}3,7,3,7,4,6,4,6,
{32}5,4,3,2,1,8,7,6,
{32}5,4,3,2,1,8,7,6,
{4}5b-1[8:5]*-1[8:5]/Cf,6,3,8,
{4}Ch[4:6]/B2/B3/B6/B7/E7f/E3f,,,,,,
{4}B4/B5/B8/B1/E5f/E1f,2hbx[16:1]/7hbx[16:1],
{8}3-8[8:1],3,6-3[8:1],6,
{8}2-6[8:1],2,4>5b[4:2],,4,,,,
{16}8,1,2,3,4/5,6,7,8,
{8}1b/2b,,3-7[8:1],3,5-2[8:1],5,
{8}8-4[8:1],8,6-1[8:1],6,2-5[8:1],2,
{4}7b-4b[8:1],7b/3b-8b[8:1],3b/6b,
{16}7,1,7,1,6,2,5,3,6,4,7,5,
{8}8b<5[8:1]*>3[8:1],,8b,,7b/1b,7b-3[8:1]/1b-5[8:1],,Cf,
{16},,7,1,{8}7-1[8:1],2,7-5[8:1],3,7-2[8:1],4,7-4[8:1],3,
{8}7>2b[8:1],,7/3p6b[8:1],,3/7,,
{16}5b,4,5,,{8}2-8[8:1],6,2-4[8:1],7,
{8}2-7[8:1],6,2-5[8:1],5,2,6,3-7[8:1]/7-3[8:1],3/7,,,
{8}1b/5b,1b/5b,{16}2,3,4,5,3,4,5,6,4,5,6,7,
{8}8b/4b,4b,{16}7,6,5,4,6,5,4,3,5,4,3,2,
{8}1b/7b,7,5,5,4,4,2,2,
{8}8h[16:1],8h[16:1],1h[16:1]/7h[16:1],1h[16:1]/7h[16:1],
{8}2h[16:1]/6h[16:1],2h[16:1]/6h[16:1],
{8}3h[16:1]/5h[16:1],3h[16:1]/5h[16:1],
{16}4b-1[16:1],,,8b-5[16:1],,,2b-7[16:1],,,6b-3[16:1],,,{4}1b,
{4}2,3,4w8[8:1],4b,
{8}2/6,3/5,4,,
{8}5/6,4,5/6,7,4/5,3,4/5,6,3/4,2,3/4,5,
{16}2,,8,1,8,,,,
{8}3/5,4,4/6,5,2/4,3,5/7,6,
{32}A4,D4,A3,D3,A2,D2,,,
{16}7,8,7,8,
{8}6,5,4,3,2/5,1,8,7,
{16}1b/6b,,2,5,2,,7,4,7,,3h[32:1],4h[32:1],1h[32:1],,6h[32:1],5h[32:1],
{8}8h[32:1],,1,3/8,,8,1/6,,1/2,4/8,,7/8,1/5,,
{32}3,4,5,6,7,8,1,2,
{8}3-6[8:1]*-6[8:1],,1/3b,,2-5[8:1]*-5[8:1],1,8/2b,,
{8}7/1-4[8:1]*-4[8:1],,7/1b,,8-3[8:1]*-3[8:1],7,6/8b,,
{8}6-3[8:1],,8/6b,,7-4[8:1],8,{16}1/7b,,1,2,
{8}3b-6[8:1]*-6[8:1],8,3b-7[8:1]*-7[8:1],7,3b-8[8:1]*-8[8:1],6,3b,5,
{8}6,7,8,1,2/5,3,4,5,
{16}6b/1b,,2,5,2,,7,4,7,,3h[32:1],4h[32:1],1h[32:1],,6h[32:1],5h[32:1],
{8}8h[32:1],,1/2,4/7,,7/8,5/2,,
{16}1/8,,1,2,3/8,,8,7,6/2,,2,3,4/7,,7/4,6/3,
{1}5q7[4:6]/2p8[4:6],,
{1}C/2v4[4:2],C/6v7[4:2],{32}C,B1/B8/B5/B4,E1/E5,D1/D5,
