&title=girls.exe
&artist=rintaro soma
&first=0
&des=fumen_boys.exe
&lv_5=14+
&inote_5=(188)
{1},
{16},,,,Ch[4:1],,,,,,,,,,,,
8/1-3-5-7-1[4:12]*s5[4:6],,,,,,,,,,,,,,,,
,,,,,,,,,,,,,,,,
8h[4:8],,,,,,,,,,,,,,,,
,,,,,,,,,,,,,,,,
1-3-5-7[4:9]*s5[4:6],,,,,,,,,,,,,,,,
,,,,,,,,,,,
,,,,,
8h[4:4],,,,,,,,,,,,,,,,
7w3[4:2],,,,,,,,,,,,,,,,
8/1-3-5[4:6]*s5[4:6],,,,,,,,,,,,,,,,
,,,,,,,,,,,,,,,,
7^5[4:1],,,,5^3[4:1],,,,3^1[4:1],,,,1^6[4:1],,,,
6^3[4:1],,,,3w7[4:1],,,,,,,,,,,,
1h[16:1],,1h[16:1],,1h[16:1],,1h[16:1],,2h[16:1]/8h[16:1],
,2h[16:1]/8h[16:1],,2h[16:1]/8h[16:1],,2h[16:1]/8h[16:1],,
3h[16:1]/7h[16:1],,3h[16:1]/7h[16:1],,3h[16:1]/7h[16:1],,3h[16:1]/7h[16:1],,4h[16:1]/6h[16:1],,4h[16:1]/6h[16:1],,4h[16:1]/6h[16:1],,4h[16:1]/6h[16:1],,
{32}A6,D7,A7,D8,A8,D1,A1,D2,A2,D3,A3,D4,A4,D5,A5,D6,A6,D7,A7,D8,A8,D1,A1,D2,A2,D3,A3,D4,A4,D5,A5,D6,
{16}A6/1,2,3,47,6,5,42,3,4,58,7,6,5/4,3s7[68.364#22:4],2-6[75.2#20:4],1h[16:7]/8h[16:7],
,,,,,,,,,,,,,,,,
,,,,,,7h[96:1],1h[96:1],8,8,8,8,8,8,8,8,
8b-5[8:1],,6h[8:1],,,,,,4,4,5-7[8:1],,3,,2,,
1-7[8:1],,3,,4,,5-8[8:1],,4,,3,,2q7[4:1],,,,
7p2[4:1],,,,1h[8:1],,,,8,8,1-3[8:1],,7,,6,,
5-3[8:1],,5-7[8:1],,6-2[8:1],,,,,,8,,,,,,
7h[96:1]/3h[96:1],,,,5,5,5,5,5,,64,,3h[16:1],,{32}A7,E7,E6,E5,
{16}A4,,2,8,1,1,1,1,1-4[8:1],,,7,,,5h[8:1],,
3,,7,1,8,1,7,1,8-5[8:1],,,2,,2z6[4:3],,,
,,,,,,,,,,,,,,,,
4h[96:1],,7,5,7,5,6h[8:1],,{32}A4,E4,E3,A2,{16}8,1,8,1,8,1,
8h[8:1],,3,3,5,5,4,4,6-2-4[4:1],,7,,8,,7,,
6,,5-1[8:1],,5-7[8:1],,6-3[8:1],,,,,,8,,2h[8:1],,
{24}C,B5,A5,3,2,1,8,7,6,3p2[8:3],2,1,8,7,6,,,,,,,,,,
{16}5-8[8:1],,,,8-5[8:1],,,,{12}2,2,2,4,4,4,
{16}6-2[8:1],,,,8z4[8:3],,8V64[8:2],,,,,,,,,,
3h[96:1],,,,2,8,2,8,{32}3,4,5,6,7,8,1,2,3qq3[8:2],4,5,6,7,8,1,2,
{16}3-5[8:1],,,,,,,,6h[16:1],5,,,3h[16:1],4,,,
2-5[8:1],,3,,4,,6-1[8:1],,7,,8,,2-5[8:1],,3,,
4,,6-1[8:1],,7,,8,,2-5[8:1]*q6[8:1],,,,2,,,,
7-2[8:1],,8,,1,,3-6[8:1],,4,,5,,7-2[8:1],,8,,
1,,3-6[8:1],,4,,5,,7-2[8:1]*q3[8:1],,,,7,,,,
4-7[8:1],,5,,6,,8-3[8:1],,1,,2,,4-7[8:1],,5,,
6-1[8:1]*-3[8:1],,,,6,,,,2w6[8:1],,,,2,,,,
48,,48,,37,,37,,{24}26,1,8,7,6,5,41,8,7,6,5,4,
3/8-4-8[8:2],7,6,5,4,3,2-6-1-5-3b[8:4]/A8,,,,,,,,,,,,,,,,,,
{16}7,,7-5[8:1],,8,1,7,,3,4,2,4,3,,5/2-6[8:1],,
1,8,2,,7,5,7,5,8p4[8:1]*p3[8:1],,,,8,,,,
2,,2-4[8:1],,1,8,2,,6,5,7,5,6,,4/7-3[8:1],,
8,1,7,,2,4,2,4,1p5[8:1]*v6[8:1],,87,,1,,,,
47,,4/7-3[8:1],,6,5,7,,2,4,2,4,1,,5/2-6[8:1],,
3,4,2,,7,5,7,5,8p4[8:1],,,,8/1,,,,
23,4,5,6,78,1,2,3,4/5-2[8:1],6,7,8,15,,7-4[8:1],,
,,7,,{48}8pp1[8:2]*qq8[8:2],E1,B1,B2,E3,A3,{16},,,,,,,,,,
{16}
1b,2,3,4,6,7,8,1,5,6,7,8,15,2,3,4,
8,7,6,5,3,2,1,8,4,3,2,1,84,7,6,5,
{16}
1,2,3,4,6,7,8,1,5,6,7,8,15,2,3,4,
8,7,6,5,3,2,1,8,4,3,2,1,84,,,,
{16}
3,6,3,6,2,5,2,5,1,2,3,4,56,7,8,1,
3,7,3,7,4,8,4,8,5,4,3,2,18,7,6,5,
{16}
2,7,2,7,1,6,1,6,8,1,2,3,45,6,7,8,
{24}1/2,,,8,7,6,5/1,,,8,1,2,7-4[8:1]`3bv8b[8:1],,,7b,,,,,,,,,
{16}
1b,2,3,4,6,7,8,1,5,6,7,8,15,2,3,4,
8,7,6,5,3,2,1,8,4,3,2,1,84,7,6,5,
{16}
2,3,4,5,7,8,1,2,6,7,8,1,26,3,4,5,
{24}
8,1,2,3,4,5,6/1,2,3,4,5,6,7/2,3,4,5,6,7,{16}
1h[8:1]/8h[8:1],,,,
{32}
8/1b,2,3,4,,,1b,2,3,4,,,1b,2,3,4,8,,,,8,,,,1/8b,7,6,5,,,8b,7,
6,5,,,8b,7,6,
5,1,,,,{16}1,,28,,2h[4:1],,4,5,6,7,
{32}
8/3b,4,5,,,,8/3b,4,5,,,,8/3b,4,5,,,,8/3b,4,5,,,,8,,2,,8,,2,,
{16}
73,,73,,64,,64,,{16}
5h[32:1],5h[32:1],5h[32:1],5h[32:1],5h[32:1],5h[32:1],5h[32:1],5h[32:1],
(211.5)
{4}
5pp5qq4b[35.25#6:1],,,,
,,,,
,,,,
(211.5)
{4}
1-3-6-1[4:29]/Ch[4:1],,,,
,,,,
{4}
Ch[4:1],,,,
,,,,
{4}
Ch[4:1],,,,
,,,,
{4}
Ch[4:1],,,,
,,,,
{16}
1,8,1,8,1,8,1,8,1,8,1,8,1,8,1,8,
1,8,1,8,1,8,1,8,1,8,1,8,1,8,1,8,
{16}
1h[16:1],8,1,8h[16:1],1h[16:1],8h[16:1],1,8,1h[16:1],8h[16:1],1,8,1h[16:1],8h[16:1],1h[16:1],8,
1h[16:1],8h[16:1],1,8h[16:1],1h[16:1],8,1h[16:1],8h[16:1],1,8,1h[16:1],8h[16:1],1h[16:1],8h[16:1],1h[16:1],8h[96:1],
{4}
Ch[8:1],,,,
,,,,
{4}
8-5[4:5],,,,
,,,,
{4}
5w1b[4:4],,,,
,,C,3b/7b,
{16}
1/2,,3,,4/5,,6,5,7-4[8:1],,8/4-8-6[4:1],,7,,1,,2,,3,,5/4,,3,4,2-5[8:1],,1/5,,7,,,,
{16}46,,6,,5/3,,2,4,1-3[8:1]*-5[8:1],,8/7,,,,,,
64,,6,,53,,2,4,1,,26,,26,,,,
{16}
8/7,,6,,5/4,,3,4,2-5[8:1],,1/5-1-3[4:1],,2,,8,,7,,6,,4/5,,6,5,7,,8/4,,2,1,2,,
{24}
8h[8:1]/3,4,5,,,,1h[8:1]/7,6,5,,,,26,37,48,5qq6[8:3]/1qq2[8:3],,,,,,{384}1b/5b,Cf,,,,,,,,,,,,,,,{24},,
{16},,,,,,,,5-2[8:1]/1-6[8:1],,,,,,,,
{16}
5b/1b,2,3,4,8,1,2,3,7,8,1,2,6,7,8,1,
5,6,7,8,1/5,26,3/7,48,5v3[8:1]/1v7[8:1],,,,,,,,
{16}
4,8,4,8,3,7,3,7,2,6,2,6,1,5,1,5,
8,7,6,5,4/8s4[8:3],3,2,1,8/6v4b[16:2],,,,,,,,
{4}
1s5[4:2]*V35[4:2],,,,
{16}4h[16:1],6h[16:1],4h[16:1],6h[16:1],3h[16:1],7h[16:1],3h[16:1],7h[16:1],2h[16:1],8h[16:1],2h[16:1],8h[16:1],1b,,,,
{16}
8,7,6,5,3,2,1,8,6,5,4,3,2,1,8,7,
2b,5,3,4,3h[16:1],,7b,4,6,5,6h[16:1],,3b,4,2h[16:1],,
{16}
6b,1,7,8,7h[16:1],,3b,8,2,1,2h[16:1],,7b,8,6h[16:1],,
2,3,4,5,1,2,3,4,8,1,2,3,47,,,,
{16}
2-4[8:1],,6-8[8:1],,2,,6,,1w5[8:1],,,,1V35s1[4:2]*V75s1[4:2],,,,
,,,,,,,,,,,,B6/B7/E7/B2/E3/B3,,,,
{16}
4h[16:1],5h[16:1],4h[16:1],5h[16:1],3h[16:1],6h[16:1],3h[16:1],6h[16:1],2h[16:1],7h[16:1],2h[16:1],7h[16:1],1h[16:1],8h[16:1],1h[16:1],8h[16:1],
1h[16:1],5h[16:1],2h[16:1],6h[16:1],3h[16:1],7h[16:1],4h[16:1],8h[16:1],4h[16:1],8h[16:1],3h[16:1],7h[16:1],2h[16:1],6h[16:1],1h[16:1],5h[16:1],
{16}
8h[16:1],7h[16:1],8h[16:1],7h[16:1],8h[16:1],7h[16:1],8h[16:1],7h[16:1],1h[16:1],6h[16:1],1h[16:1],6h[16:1],1h[16:1],6h[16:1],1h[16:1],6h[16:1],
3h[16:1],5h[16:1],4h[16:1],6h[16:1],3h[16:1],7h[16:1],2h[16:1],8h[16:1],1-5b[16:1],,1h[96:1],,,,,,
{16}
7b,4,6,5,6h[16:1],,2b,5,3,4,3h[16:1],,6b,5,7h[16:1],,
1,2,3,4,8,1,2,3,7,8,1,2,37,,,,
{24}
1h[8:1]/6,5,4,,,,8h[8:1]/2,3,4,,,,73,62,51,4-7V52[8:3]/8-3V16[8:3],,,,,,8b/4b,,,
{16},,,,,,,,84,15,26,37,8,1,2,3,
{16}
8h[32:1],4h[32:1],8h[32:1],4h[32:1],8h[32:1],4h[32:1],8h[32:1],4h[32:1],8h[32:1],4h[32:1],8h[32:1],4h[32:1],8h[32:1],4h[32:1],8h[32:1],4h[32:1],2h[2:1],,,,,,,,5,6,7,8,1-5b[8:1],2,3,4,
{16}
1b/5,,,,,,,,47,,6,5,6,,25,,
3,4,3,,1-6[8:1],,6v3[8:1],,1s5b[4:1],,,,,,,,
{16}
2h[4:1],,,,4-8[8:1],,,,1,2,3,,5h[8:1],,7h[8:1],,
4-2-4[4:1],4,4,4,4v6-1[4:1]*v6-8[4:1],,,,,,,,,,,,
{24}2,3,4,6,7,8,2-6[8:1],3,4,6,7s3[24:5],8h[24:4],,,,,,,8,,,,,,
{16}
5,5h[8:1],,1,1h[8:1],,7,7,{32}3,4,5,6,7,8,1,2,{16}3/5h[32:1],,,,
{16}
6,5,6,5,74,,74,,8,8h[16:1],{32}2,3,4,5,,,,,{16}8,8h[16:1],
{32}1,2,3,4,7,6,5,4,1h[4:1],,,,,,,,{32}
E8/D8,E7,E6/D6,E5,E4/D4,E3,E2/D2,E1,E8/D8,D7,E6/D6,D5,E4/D4,D3,E2/D2,D1,
{4}
E8/D8/Ch[16:1],,3b>8z4>8b[4:11]`7<5s1<4[4:11],,
,,,,
{4}
,,,,
,,,
{16},,B8,C,
{16}
B4,A4,A6,B6,B2,A2,8,,,,,,,,,,
{4},,,,
