&title=Please Mr. Postman
&artist=The Carpenters
&first=0
&lv_3=10
&des_3=My First Song
&inote_3=
(125){16},,,7,2,8,,,{4}7/2,2,
2,{8}B2,B4,{4}E7/B2,2,
7h[2:1]/6>1b[4:1],,,8/1,
7/2,6/3,5/4,{16}7,,,7h[4:1]/6-2b[0.36##0.1008],
,,,,,,,,,7,,2,,3,,5h[16:7],
,,,,,,,,4,,,7/2,,,,,{4}6/7>5[0.36##0.6],
3,{16},7,,2,,5,,3,
,6,,2,3,5/3,,,{8}2,6,{4}5h[4:1],
,5>7b[0##0.4704],7<8b[0##0.4704],8<8b[0##0.4704],
{8},B3,E1,B5,{4}B7,7,
{16}3h[2:1]`6h[2:1],,,,,,,,,,,,,8,,3,
,5,,2,,,,8<5[0##0.2352]/1>4[0##0.2352],,,,,,,,3/2/7/6,
,,,6,,3,,,,4,,,,1,,5,
,,,1h[16:11],,8,,,,7,,,,,,,,7/3,
,8/1,,5/4,,5/4,,,,,,E8/B8/B7,,B3/E4/B4,
,B6/E6/B5,,E2/B1/B2,,,,,,,,,,7,,4,
,5,,6,,2h[8:3],,,,,,,,8,,,,5,
,,,,,,,,,,{8}7,3,
5,6,{16}2,,,5,,6,,2,,3,,2h[16:7],
,,,,,,,,,,7,3,5,4,6,8,
5,1,3,5,,2,,5,,4,,7,,5,,1,
,,{8}2<6[0##0.6],,,{4}1h[8:1],7h[8:1],
{8}5h[8:1],,,7/6,{16}2/3,,,8<1[0##1.08],,,,,,,,,{8}1,
8,5,6,{4}1h[4:1],
{16},,,,,5,,2,,4,,6,,3,,,,,,,{4}1<3[0.2352##0.2352],
{8},7,2,5,
3,1,{16}5,8<3[0.1104##0.6],,,,,,,{8}7/6,2/3,
{4}8/1,5h[1:1]/4h[1:1],,,,,{2}8<5[0##0.4704],
{4}1>4[0##0.4704],{16}7,5,1,3,5,7,{8}3,{16},E7/C/E3,,,,8/1,
,5/4,,8<5[0##0.36],,,,,{8}1>4[0.1104##0.6],{16},,,,4,
6,{8}3,{4}8h[16:3],6h[16:3],4h[16:3],
{8}6/3,,,7/2,{16},6/3,,,,,{8}7,
4,1,5,2,8,4,{16}2,,,6/3,
,,,,6h[8:1],,,2h[8:1],,,,,{8}7,1,
5,1-6[0.1104##0.1104],,2,{4}5h[8:1],{8}4,1,
4>8[0.1104##0.36],,,8,4,E8,E7/E3,8h[8:1],
7h[8:1],6h[8:1],5h[8:1],4h[8:1],3h[8:1],2h[8:1],{4}1h[8:1],
{8}7,3,{16},5h[8:15]/4h[8:15],{1},{4},,,{16},,,4h[16:27]/5h[16:27],
{1},{4},,,{8},7,
4,{16}2,,,,,7,,,{4}8<5[0.1104##0.36],
2h[16:11],{16},,,6,,,,,,,{8}B7,
B1,7,,4,1,6,
{16}8,,,5h[16:3]/4h[16:3],,,,,,1-5[0.1104##0.2352],,,,,,5,
4,,,8/1,,,,,,,{8}6,2,5,
{16}C,,,7/2,,6/3,,,,,,,,8,,4,
,2,,5,,,,,,,{8}3,6,1,
6,3,6,3,{4}7/2,6h[1:1]/3h[1:1],
,,,,5/2,
5h[4:1]/7h[4:1],{8},7,{16}1,2,{8}5,
{16}3,2,{8}5,{16}3,2,{8}E7/C/E3,,8/1,{4}5/4,
{16},,,5,,5h[16:3]/4h[16:3],,,,6h[16:3]/3h[16:3],,,,7h[16:3]/2h[16:3],,,,8h[16:3]/1h[16:3],
,,,,,7/3,,,,,,,,,{8}3/7,
1w5[0.12##0.12],,6/2,{16}8w4[0.12##0.12],,,,,,,7,
,2,,7/2,,,{8}6/3,6h[4:1]/2h[4:1],,,6/2,
{16},4/8<5[0##0.84],,3,,2,,1,,5/1>4[0##0.84],,6,,7,,8,
,,{8}5h[8:1]/4h[8:1],,7h[8:1]/2h[8:1],{16},Ch[8:1],,,,,,4/8<5[0##0.84],
,3,,2,,1,,5/1>4[0##0.84],,6,,7,,8,,8<1[0.12##1.08],
,,,,,,,,,,,,,7h[16:7]/3h[16:7],,,,,,,,6h[16:5]/2h[16:5],
,,,,,,{4}8/1,
{8}5/4,,,7,4,2,5,1,
5,6h[16:3],{16},,,,,2,,5,,7,,4,
,8,,,1,2,3,4,5,6,7,8,,,1,2,
3,4,5,6,7,8,1,2,3,4,5,6,7,8,,,,,,,,,,,,8,
7,6,5,4,3,2,
1,8,7,6,5,4,3,2,1,8,7,6,5,4,3,2,
1,,,,,,,1,2,3,4,5,6,7,8,1,
2,3,4,5,6,7,8,1,2,3,4,5,6,7,{8}8,
{16},,,,,8,7,6,5,4,3,2,1,8,7,6,
5,4,3,2,1,8,7,6,5,4,3,2,{4}1,
{8},7,1,2,6,5,4,7,
,5,2,3,{4}5,{16}2,,,5,
,3,,7,,2,,5,,6,,E6/E2,,7,,4,
,A4,,5,,6/2,,7,,2h[8:1],,,,,,,{1}6h[4:15]/3h[4:15],
E
