&title=HERO-emuim-
&artist=Room97(feat.EVO+)
&first=0
&des=Dororo for his HERO
&lv_5=13
&inote_5=(70)
{1},
{16}E1,,,,C,,,,E5,,,,3qq6[12:7]/6,,,,
{16}5qq5[3:1],,,,,,,,,,,,4<2[4:1],,,,
{16}3,,,,5>7[4:1],,,,6,,,,4<2qq6[4:3],,,,
{16}3,,,,,,,,,,,,,,6h[16:1],E6,
{16},,2h[16:1],E3,,,8h[16:1],E8,,,5,,2-5[16:1]/6,,,,
{16}1h[16:3]/2,,,3,2/4pp5[6:1],,2,,,,3,,4p8[12:1]*q8[12:1],35,,,
{16}4,,,1,2/8z4[6:1],,7h[4:1],,,,,,7-4[16:1]/3,2,,1,
{16}8h[16:3]/7,,,6,7/5qq4[6:1],,7,,,,6,,5^8[12:1]*^2[12:1],46,,,
{16}5,,,8,1-5-8-6[4:1]/7,,2h[4:1],,,,,,1b,,,,
{16}7,7h[16:3],,5,5>1[8:1],,4qq6[3:1],,,,,,8,8,8,,
{16}2,2h[16:3],,4,4<8[8:1],,2pp2[4:1]/8qq1[4:1],,,,,,,,,,
{16}1,1h[16:3],,5,5>1[8:1],,46,,5<1[8:1],,8,,3,3,3,,
{16}2/4bqq4b[4:1]*pp4[8:5],,,,,,,,,,,,,,,,
{16}2-6[16:1],,1-5[16:1]/5-1[16:1],,,,,,78,,6,,2-5[16:1]/5-3[16:1],,1^6pp4b[3:1]/7,,
{16},,,,4,,3,,2<6[8:1],,6<2[8:1],,,,,,
{16}5-8[16:1],,1-4[16:1]/4-1[16:1],,,,,,53,,6,,7^2[16:1]/8,,4/3p7[16:1],,
{16},,,,6>2[8:1]*p2[8:1],,17,,,,,,E1f,,,,
{16}3v5[16:1],,1v7[16:1]/7v1[16:1],,,,,,28,,3,,7-4[16:1]/4,,8^3qq5b[3:1]/2,,
{16},,,,5,,6,,7>3[8:1],,3>7[8:1],,,,,,
{16}5pp5[16:3],,34,,5qq5[16:3]/2qq2[16:3],,1,,,,,,6,,78,,
{16}1/6<3[8:1],,2V46-8[16:3]/3V57-1[16:3],,,,,,,,3,,2b/4b,,65,,
{16}7-3[16:1],,8pp3[16:3]/4pp7[16:3],,,,,,,,1,,7-4[16:1]/4-6[16:1],,8^3qq7b[3:1]/2,,
{16},,,,7,,6,,5-1-3[8:1],,6V84[8:1]/1,,,,,,
{16}2^5[16:1],,1pp4[16:3]/6pp4[16:3],,,,,,,,3,,6-2[16:1]/5,,1s5[8:1]/8z4[8:1],,
{16},,,,,,37,,2^4[16:1]/5^7[16:1],,8z4[8:1]/1,,,,,,
{16}2-6[16:1],,1qq6[16:3]/5qq2[16:3],,,,,,,,8,,2-5[16:1]/6,,1^6pp2b[3:1]/7,,
{16},,,,2,,3,,4-7-5[8:1],,2V83[8:1]/8,,,,,,
{16}4pp4[16:3],,12,,4pp8[16:3]/7<1[16:3],,8,,,,,,7,,65,,
{16}4pp5[8:1]/5,,4qq3[8:1]/3,,4bz8b[8:1],,,,,,3,,2V41[8:1]/7V58[8:1],,18,,
{16}2^7[4:3]/7,,,,,,,,E5,,,,,,,,
{16}3>6[4:3],,,,,,,,,,E1,,C,,E5,,
{16}2^7[4:3],,,,,,,,E5,,,,,,,,
{16}Ch[8:5],,,,,,,,,,2qq6[4:3],,3,,4qq5[2:1],,
{16},,,,,,,,,,,,,,,,
E
