&title=Cuvism³
&artist=Fl00t vs Halv
&first=0.46
&des=GBLKH in Peace
&lv_5=15
&inote_4=(194){4},{8},,,,,,3,
4,5,6pp2[8:11],,,,,,,,5,
,,{4}4,
3h[4:5],2<3[4:5],,,,{32}E3,
B3,{1},{16},{8}2/4,
,3,,3,
,3,4/6,5,5,5,5,5,
5,5,6/4,{16}3,7,3,7,2,8,2,8,1,1,
1,1,1-5-7-3-1[8:5],1,{4}1,{8},,,6,
{4}7,{8}8,1-5[8:1]/7-5[8:1],,1/7,,4,
{16}5,5,{8}5,6/4,{16}7,8,{8}7,6/1V73[8:1],5,1/4-8[8:1],
,4,,1/3qq4[4:1],,8,,6<1[8:1],
,6/5-1-5[4:1],,5,8,8qq1>7[2:1],,,,,,1-7[8:1]*-5[8:1],
,1,,6,
{16}5,5,{8}5,4/6,{16}3,1,2,1,{8}4>1[8:1],8,4,
,8V26[4:1],2,8/3-7[8:1],,3,,5/1qq2[4:1],
,1,,5,4,{16}3s7[4:1],3,{4}3,
{8},,,1/7,{16}2,4,{8}3,{16}6,4,{8}5,
{16}2,4,{8}3,{16}6,4,{8}5<7[8:1],{16},3,{8}5,{16}2>4[8:1],,,1,
{8}2,8,7,6,{16}3,5,{8}4,{16}7,5,{8}6h[8:1],
{16}4,5h[8:1],,3,{8}4h[8:1],2,2,3/4,4/3,5>3[8:1],
,6/5,7,8,{16}2,1,{8}2,{16}8,1,{8}8h[8:1],
{16}2,7h[8:1],,3,{8}6h[8:1],4,{16}5,4,{8}5<7[8:1],{16},4,{8}5,
{16}2>4[8:1],,,1,{8}2,8h[8:1],{16}5,7h[8:1],,4,{8}6h[8:1],{16}3,5h[8:1],
,,{8}2,1/7,B7/B6,B2/B3,{16}E6,E5,{8}E4,8,
1,7/B2/E3/A2,,6h[8:1],5,4,7h[8:1],4,
5,6h[8:1],5,4,7h[8:1],3,{4}4>8[4:1],
{8}7,6,5,4h[8:1],1,1,5h[8:1],2,
2,6h[8:1],3,3,5,6<2[4:1],7,5,
4,3,,3h[8:1],4,5,2h[8:1],5,
4,3h[8:1],4,5,2h[8:1],6,{4}5<1[4:1],
{8}2,3,4,5h[8:1],8,7/4,6h[8:1],3,
2/5,1h[8:1],4,{16}2,8,{8}2,3/7,{4}6/4-7-5-1[8:3],
{8}5,,,7h[8:1],8,1,6h[8:1],2,
1,7h[8:1],8,1,6h[8:1],2,{4}1>5[4:1],
{8}6,7,8,1h[8:1],5,5,7h[8:1],3,
3,5h[8:1],2,2,4,3-5-2V48[8:3],{4}5,
{8}6,7,,7h[8:1],1,2,6h[8:1],1,
8,7h[8:1],8,1,6h[8:1],2,1>3[8:1],5,
{4}6<1[8:1],{8}4,4h[8:1],,2xh[8:1],4,5xh[8:1],
4,6xh[8:1],4,7,8/4,3,2,{16}1,5,
2,6,3,7,4,8,{8}5-7>2-4[8:29],,,,,,,,,,,,,,,,E8,
E7,E6,{4}E5,
{8},,,,,,,,,,,6,
5,4,{4}3-1<7-5[1:3],
{8},,,,,,,,,,,E5,
E4,E3,{4}E2,
{8},,,,,,,Ch[2:1],
,,,E5,,E5,,E5,
,E5,,1/E5,,2/E6,,3/E7,
,4/E8,,E1,,E1,,E1,
,E1,,5/E1,,4/E8,,3/E7,
,2/E6,,2/E5,1,1,1,2/B6,
2,2,2,3/B7,3,3,3,4/E1,
4,4,4,{16}4,8,3,7,2,6,1,5,{32}8,7,6,5,
4,3,2,1,8,7,6,5,4,3,2,1,{8}8/Cf,,,,,,,,Ch[1:1]/2-4<5-7[2:1],
,,,,,,,E1,
,,{4}8/7b,
1/2b,{16}7,5,{8}6<8[8:1],,A6f/3b-5[8:1],2,1/3,
{16},8,,,6,5,{8}7h[8:1],{16}4,6h[8:1],,3,{8}5,{16}1,4,
2,5,{8}3,6/4x-2[8:1],5,4b/6-8[8:1],5,6b,1h[8:1],
{16}7,2h[8:1],,6,{8}3x-1[8:1],4,3b/5-7[8:1],4,5b,1h[8:1],
{16}8,2h[8:1],,7,4,6,{8}5,{16}8b<5[8:1],4,,,{8}8,{16}2b-5[8:1],4,
,,{8}2,7,7b,{16},8b/6,,,1b/2b,,,3/4b,
,,{8}5b/6,4b/7x-1[8:1],6,7b/4-2[8:1],5,4b,6h[8:1],
{16}1,5h[8:1],,2,{8}4x-6[8:1],5,4b/2-4[8:1],1,2b,8h[8:1],
{16}5,7h[8:1],,,{8}6x-1[8:1],7,6b/4-8[8:1],3,4b,7,
{16},6b/1,,,{8}2b/5,3b/4b,{16},5b/6b,,,{8}4b/2b,1b/8b,
{16},7b/5b,,,{8}4b/2b,1b-5[8:1],,6/A1f,7,8h[8:1],
{16}5,7h[8:1],,4,6-8[8:1],3,{8}5,6/4>2[8:1],5,4,7h[8:1],
{16}1,6h[8:1],,2,{8}5h[8:1],3,{16}1,2x,,4,{8}3x,{16}6,5x,
,7,{8}4,6/3,{16}2,8,4,6,1,7,3,5,2,6,
4,8,3,5,1,7,{32}E3,E4,{16}E5,{4},,,{16},,{32}E7,
E6,{16}E5,{4},,,{16},,{32}A3,
A4,{16}A5,{4},,,{16},,{32}A7,
A6,{16}A5,,,,,,,,,,,,,,,{8}3,
4,2qq5[8:3],{4}2,
{8},,,6,5,7qq4[8:3],{4}7,
{8},,,3,4,2q4[8:3],{4}2,
{8},,,6,5,6,4,5,
3,E4/A3/A4,,2>1[8:11]/5-3-6b[8:3],,,,,,,,B7/E7,
,,{4}B5/E5/B4,
{8},,,7<8[8:11]/4-6-3b[8:3],,,,,,,,B1/B2,
,,{4}B5/E5/B4,
{8},,,1qq5[8:5]*qq6[8:5],,,,,,,,7,
{4}7,{8}5,5/6>3[8:1],
,1>8[1:1],,1/C,,,,,,,,Ch[8:5],
,,,,8,
1-3[8:1]/7-3[8:1],{48},,,,,,7/1b-5[8:1],Cf,,,,,,,,,,,{8}1b/7b,{16},,6,4,
,7,{8}8-6[8:1],1,8-4[8:1],3>1[8:1],8,3,5,
{16}8,1,{8}7,2b/6b,2-5[8:1],8,2-8[8:1],6,2,
{4}5<8[8:1],5b-1[8:1]/3-1[8:1],5b-7[8:1]/3-7[8:1],5b/3b,
{8}1,8,7/4,6-4[8:1],4-7[8:1],6,{4}1-5[8:1],
{8}1,7,{4}6>3[4:1],3>8[4:1],8<5[4:1],
{8}5,4,3,2-5[8:1],5-2[8:1],2,6,7-4[8:1],
7-2[8:1],7,,5,3,6,4,7,
1,8-6[8:1]/2-6[8:1],{48},,,,,,2/8b-4[8:1],Cf,,,,,,,,,,,{8}8b/1b,{16},,5,3,
,8,{8}1-3[8:1],7,1-5[8:1],6<8[8:1],1,6,4,
{16}1,8,{8}2,7b/3b,7-4[8:1],1,7-1[8:1],3,7,
{4}4>1[8:1],4b-8[8:1]/6-8[8:1],{48}4-2[8:1]/6b-2[8:1],Cf,,,,,,,,,,,4b/6b,Cf,,,,,,,,,,,{8}8,
1,2/7,3h[8:1],{16}5,4h[8:1],,6,{8}5-2[8:1],7-3[8:1],
5,7,1,5,1>4[8:1],4-8[8:1],{4}1,
{8}7,1/6,2/5,3-7[8:1],7-3[8:1],3,{4}8qq4[4:1],
{8}8,1,2,{16}3b,4,2,6b,5,7,2b,4,1,6b,
5,8,{32}2b,3,4,5,6bV82V46<2>6[2:7],7,8,1,{8}2/Cf,{1},,,{4},,,{8},7,
5,6-4-7-3[8:3],,,,,,2,
4,3-1-4-8[8:3],,,,,,,7,
5,{16}E5,B4,B3,E3,
E7,B7,B8,E1,{8}C,B6/B5,{4}B4/B3,{8}E2/E3/A2,E4/E5/A4,
{16}E7,E8,{8}E1,5,{24}3x,2x,1x-5[24:55],{1},,{4},,,{16},,{8}8-4[8:23],
{1},,,{4},,,{8},2,
{16},4,,,3,,,5,
,,,4,,,,,{2}3pp6[4:5],
{8},,,,,,,,,,,5h[8:15]/4h[8:15],
E
&inote_5=(194){8},,,,,6,5,4,3h[2:2],,,,,,,,E7,,,E5,,,8,8p4[8:4],,,,,,,,3q6[8:5],,,,,,
,,,1b/7b,,6,,6,,6,4x/5x,3,3,2,2,8,8,6,6,
{16}4,5,4,5,3,6,3,6,2,7,2,7,1s5[8:2],8,1,8,1,,,,,,,,{8}7x-3[8:1],,,,
{32}1<4[8:2]/2,3,4,5,,,,,{8}1,,1-5-7-3[8:4],,2,2,,4,4,,5-1[8:1],,8,,
{32}8-4-6-2[8:4],7,6,5,,,,,{8}8,,7,,1,1,2x/8x,37,4w8[8:1]/6,,4,,26,,
{32}17,6,5,4,,,,,1-5-3-7[8:4],8,7,6h[32:5],,,,,{8}1,,2,2,,5,5,,{16}4,6,3,5,2,,2,,
{8}17,6,6,45,3,3,28,7,46,{16}3,4,1,,6,5,8b,,8b-4[8:1],,,,1,,
{16}2x,,3,4,2,,6,5,7,,3,5,1,,7,5,6,,1,3,2,,8,4,6,,1,4,3,,6,5,8,,4,6,1,,5,3,8,,
4,7,1,,6,5,8,,3,4,1,,7,8,5,,2,1,3h[8:2],,,,
8,5,6,4,7,3,5,2,8,4,6,2,7,3,5h[8:1],,1,4,3,5,2,6,4,7,1,5,3,7,2,6,4h[8:1],,
8,7,6,5,7,6,5,4,1,2,3,4,2,3,4,5,Ch[8:6],,,,,,,,,,,,1b,,,,
{8}17,6,45,{16}3,4<7[8:1],{8}2,,1,1-6[8:1],,4,4-7[8:1],,2,2-6[8:1],,8,
7,5,4,3>8[8:2],,7,6,5,4<2[8:5],,8,1,2,3,4,5,
{8}4,3,54,{16}6,5>2[8:1],{8}7,,8,8-3[8:1],,5,5-2[8:1],,7,7-3[8:1],,2,
1,8,7,6,5,6,7,8,{16}1,2,3,4,7,6,5,4,{8}8-4[8:1],1,82,,
{16}1/6x,,2,,35,,6,4,6,4,7,,83,,4,,56,,7,,28,,3,5,3,5,2,,16,,78,,
18,,2,,37,,6,4,5,3,4,,25,,16,,78,,1,,28,,3,2,3,4,3,,6,5,6,7,
{8}6x-3[8:1],5x,,1-5[8:1],2,,7-4[8:1],8,,3v8[8:1],2,,5-1[8:1],6,,7,
8,7,6,5,4,3,2,1,{16}1,2,3,4,8,1,2,3,7,8,1,2,6,7,8,1,
{2}2b>1qq2[8:13]/5h[8:14],,,,{8}
5,4<8[8:5],3,2,,,,,,E3,E4,,E8,E7,,,4,5>1[8:5],6,7,,,,,,E7,E6,,E2,E3,,,
5,6,7,8qq4[8:5],,,,,,E2,E3,,E8,E7,,5,3b/8b,,
{8}82,3,8,3,84,,71,2,7,4,73,,73,2,
6,2,61,,61,8,6,3,51,,52,3,5/4-8[8:1],,7,,
{8}61,6,6,6,25,2,2,2,35,6,47,3,26,7,38,38,{16}
2,1,2,1,3,8,4,7,{24}5x,6,7,8,1,2,{32}35,6,7,8,1,2,3,4,{4}5bw1b[47.5#16:1],,,,A5f,
,,,{8}7bh[8:2]/5bh[8:2],,,2bh[8:1]/4bh[8:1],,3bh[8:1]/6bh[8:1],,1b/8b,1b-5[8:1]/8bz4[8:1],,1b>4[8:1]/8b,,
{16}1-6[8:1],,7,7,1q5[8:1],,4,4,1<6[8:1],,7,7,1,,4,4,1,2,3,4,1,8,7,6,
5/1-6[8:1],,3-5[8:1],,1,,3,,1,8,7,6,1,2,3,4,
1v4[8:1]/5,,7-5[8:1],,1,,7,,3,2,1,8,4,3,2,1,
48,,3,1,2,,48,,7,5,6,,4,5,3,4,2,6,1,7,2,8,4,6,{24}3,7,3,7,,,{16}1b<6[8:1]/5b,,,,
1/5q1[8:1],,4,,2/5-2[8:1],,3,,5-8[8:1],,7,7,5,,1,1,
4-8[8:1],,3-1[8:1],,4<7[8:1],,3,,4q8b[8:1],,1,1,4b,,,,
{24}3x/7x,,,2,1,2,8,,,37,,,{16}6,5,7,3,6,5,8,3,
{32}1b/2,8,7,6,,,1b,2,3,4,,,7b,6,5,4,2b,3,4,5,,,8b,7,6,5,,,8b,1,2,3,
{16}4w8b[8:1],,,,4b,,,,2x/6x,,{24}3,4,2,5,,,28,,,{16}
7,5,6,4,8>4[8:1],,17,,8b,,{64}D5,A5,D6,A6,D7,A7,D8,,A8/D1f/E1/A1,,,,,,,,,,,,,,,,
{16}2bx/6bx,,3,4,2,5,1,,7b/3b,,6,5,7,4,8,,3,4,2,5,1,6,8,7,
{24}1,2,3,8,1,2,7,8,1,6,7,8,{4}5b<4q5[4:14],,,,,,,,,,,,,,,,
8q5[4:3],,,,2p4[4:3],,,,6q1[4:3],,,,Chf[1:1],,,,8b,,,,
{8}35,,,3h[8:5]/5,,,,,8>4[8:6],,,,,7,,,6<2[8:5],,,,,5,,,
4bh[8:8],,,8,8,,7,,6h[8:8],,,5,5,,4z8[8:14],,3h[8:6],,,,,,,,
{16}1x,1x,1x,1x,1x,1x,1x,1x,1x-5b[8:1],1x,1x,1x,1xb,,,,
{8}4>1[8:1]/7,,84,7,5-2-4[16:3]/6,78,56,7,8-3[8:1],5-1[8:1],8-6[8:1],5>2[8:1],
8,5,1,8,17,56,28,35,1-5[8:1]/7,6-1[8:1],1,6,34,8,23,7,12,6,1>4[8:1]/8,45,
1<6[8:1],6,1,3,45,18,6/7>2[8:1],23,7<4[8:1],4,7,2,8,35,17,46,
{16}28,,3,3,4,,17,,6,6,5,,2,2,4,4,3,7,1,6,4,8,2,5,{32}1,8,7,6,58,47,36,25,{8}4b/1b,,
{8}5b<8b[8:1]/2b,,15,2,4-7-5[16:3]/3,21,43,2,1-6b[8:1],4-8[8:1],1-3b[8:1],4<7[8:1],
1,4,8,1,{16}82,,3,4,3,,17,,6/4-2[8:1],,2-5[8:1]/8,,4/5-1[8:1],,1>4[8:1],,
8,7,6,5x,6,7,8,1,{24}3x,4,5,2,3,4,1,2,3,8,1,2,
{8}7b-2[8:1],7,5-8[8:1],5,3-6[8:1],3,1-4[8:1],1,
8-3[8:1],7,8/6V48[8:2],5,6/4,2,1b,,
{24}25,,,3,4,3,5,,,26,,,3,4,2,6,5,7,2,1,3,7,8,6,
{32}2b,3,4,,,,1hb[64:1]/7b,6,5,,,,2b/8hb[64:1],3,4,5,,,1hb[64:1]/7b,6,5,4,,,8b-4[16:1],7,6,5,8bx,1,2,3,
{2}8bxp6b[8:6]*<1>2>3<4<5<6<7>8[8:26],,,,8-6-4-2-8[8:10],,,,
{8}2h[8:7],,3,4,5,6,7,8,3,4>1[8:2],5,6,,7,,8h[8:5],,7,6,5,
{16}4,3,2,1,7,6,5,4,{8}A1/A2/E2,A6/A7/E7,,3,4,{16}6,5,7,,8,,
{24}12,3,4,5-7-1-3[8:12],,,,,,,,,,,,,,,,,,,,,,,,,,,,,,,,,,,,,,,,,,,,,,,,,,,,,,,,,,,,,,,,,,,,,
8,7,6-8-2-4>6[4:11],{4}5h[8:11],,,,,,,,,,,,,,,{16},,
2,,,5,,,3,,,6,,,,3>6[8:12],,,,,4h[8:7],,,,,,,,,,,,,,,,,,,,,,,,,,,,,,
{24}3,4qq1[8:18],5,6h[8:15],
