&title=Last Paradise (feat.Serentium)
&artist=HyuN
&first=0
&lv_5=14.2
&des_5=-ENST-
&inote_5=
(178){4},{8},,,2x,,2x,
,3xh[8:1]/B8,{4}B1,,6x,
{8},Ch[16:1],,,,,,6x,
,7x/B4,B5,7x,{4}6x,5x,
{8},Ch[16:1],,,,,,2x,
,3x/B8,B1,4x,{4}5x,6x,
{8},Ch[16:1],,,,6x,,,,7xh[4:3]/B4,
{4}B5,{8},,,,,Ch[16:1],
,,,3xh[8:3],,,,4xh[8:1]/B8,
{4}B1,{8},,,,,Ch[16:1],
,,,,,,,7xh[8:1]/B4,
{4}B5,{8},,,,,{24}A6/Ch[16:1],
D6,A5,D5,A4,D4,A3,D3,A2,D2,A1,D1,A8,D8,A7,D7,A6,D6,A5,D5,A4,
D4,A3,D3,(89)A2f/E2/D2,,,,,,{16}7p4[8:1],8/1,,7h[16:3],{4},{8}1q5[8:1]*p5[8:1],
7/3,1,,7p4[8:1],7h[4:1],{4},{8}8p4[8:1]*q4[8:1],
6/2,8,,{16}2q5[8:1],1/8,,2h[16:3],{4},{8}8q5[16:3]/4q1[16:3],
6/2,4/8,{4},{16}2,2,2,3x/B7,4x/B8,5x/B1,6x/B2,7x/B3,
8x/B4,1x/B5,{8}B6/2z6[4:1],,{16}B7,B6,,E5,{8}4xz8[4:1],,{16}E4,B3,
,E3,{8}2xv5[16:3],,{16}B7,B8,,6,7/4,5/2,6/3,{32}1/8,8/1,{16}1/8,7/2,
{32}4,4,5,5,{8}6/3-7[16:11],,,,,,,,6-2[16:11],
,,,,,,,1-5[16:11],
,,,,,,,8-4[4:3],
,,,,,,,B2f/E2/A2,
,{16}6h[8:1],B2,,7h[16:3]/B3,{8},{16}B3,7,,8,
{8},1/B5,{16}8,7,,6,B1,5h[16:5],{8},{4}B1,
{8}6/B2,7h[8:1]/B3,{16},8h[8:1],,B4,1h[16:7],B5,{8},{4}B5,
{8},B5/1qq6[4:1],{4},{8}E3,5w1[8:1],C,5,
,E1/A1/E2/B1f,,6-4-2[16:3]/2-4-6[16:3],{16},6-8-2[16:3]/2-8-6[16:3],{2},{8}1-3-5[4:1],
,5-7-1[4:1],1,1-5[16:3],{16},5s1[16:3],{8},E7,
E8,,2<6[16:3]/6<2[16:3],{16},6>2[16:3]/2>6[16:3],{2},{8}1-7[8:1],
7-2[8:1],2-6[8:1],6-3[8:1],3-5-1[16:3],{4},{8}B7,
B8f,,7<3[16:3],{16},3q1[16:3],{8},{16}2-6[8:1],2,,2,
{8},1w5[8:1],{16}3,5w1[8:1],{2},{8}1z5[4:1],
,5s1[4:1],{2},{4}Ch[4:1],
{8},8xw4[32:3],{4},{8}6xh[4:1]/2xh[4:1],{4},{8}Cf,
,2xh[8:1]/6xh[8:1],,{16}8h[8:1]/B2,B3,B4,E2,7h[8:1]/E3,E4,E5,D1,6h[8:1]/D2,D3,
D4,D5,{8}7xh[8:1]/3xh[8:1],,{16}1h[8:1]/B7,B6,B5,E8,2h[8:1]/E7,E6,E5,D1,3h[8:1]/D8,D7,
D6,D5,{8}Ch[8:1],,{16}1x/B5h[8:1],2x,3x,1x,2x/B6h[8:1],3x,4x,1x,2x/B7h[8:1],3x,
4x,5x,{8}Ch[8:1],{16}B7,B3,B6,B2,B5,B1,{8}B7h[4:1]/B6h[4:1]/B3h[4:1]/B2h[4:1]/E3h[4:1]/E7h[4:1],,Cfh[4:1],
,B4h[4:1]/B8h[24:7]/B5h[3:1]/B1h[8:3]/E5h[12:5]/E1h[24:11],,,,E3f/B2/B3/A2/A3/D3/A7fh[16:3]/A6fh[8:3]/D7fh[2:1]/B7fh[4:3]/B6fh[1:1]/E7fh[4:5],{16},2x-4[16:1],{8},2x,
2x-8[16:1],,2x-4[16:1],,2x-8[16:1],,2x,
,(178)B7h[2:1]/B6h[2:1]/E7h[2:1]/8x>4[16:3],,,,{16}5,6,7,8,1,2,
3,4,{8}B4h[2:1]/E5h[2:1]/B5h[2:1]/1x<4[16:3],{4},{16},,3,2,1,8,7,6,
5,4,{8}3xh[4:1]/E8h[4:1]/A8h[4:1]/B8h[4:1],{4},{8}6xh[4:1]/A1h[4:1]/B1h[4:1]/E2h[4:1],{4},{384}6bq8b[8:3],2xq4[384:143],{16},,,{64},,,{96},{384}6b,
2x,{4},{16},,,{64},,,{96},{8}1,,8,
,2b-4[8:1],,2/1-5[8:1],8,1/8-6[8:1],,8/1-5[8:1],
1,1/7-3[8:1],,E2h[8:1]/7x-4[8:1],,E3h[8:1]/7x-5[8:1],,7x/E4h[8:1],
,7b-5[8:1],,7/8-4[8:1],1,8/1-3[8:1],,1/8-4[8:1],
8,8/2-6[8:1],,E8h[8:1]/2x-5[8:1],,E7h[8:1]/2x-4[8:1],,2x/E6h[8:1],
,7x-3-7[8:1],,A3f/1x-5-1[8:1],A7f,A5f,{4}A1f,
{8}6pp5[4:1]/2pp1[4:1],{2},{8}7p3[8:1]/3p7[8:1],,7/3,
,1>4[8:1],,1/8<5[8:1],7,8/1,{4}2-6[8:1],
2/7-3[8:1],7,{8},3h[2:1],,1,
,1b-5[16:1],{16},2-4[16:1],{8}1,2,7b-5[16:1],{16},8-4[16:1],{8}7,
8,7-1[8:1],,B4h[8:1]/E4h[8:1]/7x-5[8:1],,B3h[8:1]/B2h[8:1]/E3h[8:1]/7x-3[8:1],,7x/B1h[8:1]/E2h[8:1],
,8b-4[16:1],{16},7-5[16:1],{8}8,7,2b-4[16:1],{16},1-5[16:1],{8}2,
1,2-8[8:1],,B5h[8:1]/E6h[8:1]/2x-4[8:1],,B6h[8:1]/B7h[8:1]/E7h[8:1]/2x-6[8:1],,2x/B8h[8:1]/E8h[8:1],
,3b,{16}5,4,5,4,5,4,6b,4,5,4,5,4,
5,4,6b,4,5,3,6,4,5,3,7b,4,5,3,8b,4,
5,3,6b,5,7,3,4b,2,8,5,7b,1,4,2,7b,5,
6,2,4b,3,6,2,7,1,8,2,7b,3,6b,4,5,3,
6b,4,(89){8}5bpp1[4:1],,{16}E3,B3,,B4,{8}4xqq8[4:1],,{16}E7,B6,
,B5,{8}4xz8[8:1]*z8[8:1],,{16}B3,E3,,2,6/1,8/3,7/2,{32}4/5,5/4,{16}4/5,6/3,
{32}1,1,8,8,{8}7b/2b,,,,,,2x,
3x,{16}4xh[16:1]/B8,B1,{8},E1h[32:1],,{16}6xh[8:3]/B2,B3,{8},,,{16}7xh[16:1]/B4,
B5,7x,8x,E5h[32:1],8x,{8},{16}8xh[8:3]/B6,B7,{8},,,{16}7x/B8,
B1,6x,5x,E1h[32:1],5xh[16:7],{8},{16}B2,B3,{8},,,{16}1x/B4,
8x/B5,{8},E5h[32:1],2xh[8:3],{16}B6,B7,{4},{8}2x,
{16}4xh[16:1]/B8,B1,5x,6x,{8}E1h[32:1],,{16}6xh[8:3]/B2,B3,{8},,,{16}7xh[16:1]/B4,
B5,7x,8x,E5h[32:1],8x,{8},{16}8xh[8:3]/B6,B7,{8},,,{16}7x/B8,
B1,6x,5x,E1h[32:1],5xh[16:7],{8},{16}B2,B3,{8},,,{16}1x/B4,
8x/B5,{8},E5h[32:1],2xh[8:3],{16}B6,B7,{8},,,{16}6x/B8,
6xh[16:11]/B1,{8},Ch[32:1],,,,Ch[32:1],
,(22.25){16}7x-3[8:3],Ch[128:1],
E
