&title=Hello, SEKAI
&artist=DECO*27
&first=0.35
&des=MiraT 13.0
&lv_5=13
&inote_5=(148)
{1}4>5[4:15],
{1},
{1}Ch[4:8],
{1},
{8},,1,2h[8:5],,,,E5,
{8}E6,E7,E8,Ch[8:5],,,,,
{8},,8,7h[8:5],,,,E1,
{8}B2,C,B6,4h[8:5],,,,,
{8}5,6,7,8qq6[4:1],,6qq4[4:1],,2h[8:5],
{8},,,,,,8,8,
{8}1-5[8:1],,6,6,,3pp8[8:5],2,1,
{8},,,,,B4,B5,,
{8}4x-1[2:1],,6,,6,,6,A2,
{8}7,A3,7,A4,7,,6,,
{8}5x-8[2:1],,3,,3,,3,A7,
{8}2,A6,2,A5,2,,3,,
{8}4-8[8:1],,6,6-1[8:1],,2,3,4h[8:5],
{8}E2,,E8,,E6,,3,6,
{8}4,4qq8[4:1],5,6h[4:1],,,7,8h[4:1]/2h[4:1],
{8},,,2-5[8:1],7p4[8:2],2,7,,
{8}2x,2,5x,5,4x,4,7x,7,
{16}1x/8x,,18,,2,4,3,,7,5,6,,3,6,4,5,
(150)
{8}4-1[8:1],,8,C,,3,3,3,
{8},5,6,7,,1,8,1,
{8}7h[8:1],E6,3h[8:1],E5,6h[8:1],E4,2h[8:1],E5,
{8}1pp4[2:1],,8,7h[8:3],,,,5,
{8}5q1[4:1],,1q5[4:1],,5<1[4:1],,1>5[4:1],,
{8}5,,1,8x/2x,,6,3,6,
{8}4h[8:1],C,8h[8:1],E7,1h[8:1],C,5h[8:1],E3,
{8}6-1[8:1],2-5[8:1],6,2,,C,B7/E8/B8/B1/B2/E2,,
(152)
{8}5-8[8:1],,1,C,,6,6,65,
{8},4,3,21,,8,1,8,
{8}2,82,6,64,3,35,7,71,
{8}2-5[8:1],7-4[8:1],2,7,,1,18,,
{8}2,2,2x/4,2,2x/6,2,2x/8,2,
{8}7,7,7x/5,7,7x/3,7,7x/1,7,
{16}2x,1,3,8,4,7,5,6,3x,4,2,5,1,6,8,7,
{8}1xh[16:1],1h[16:1],1xh[16:1],1h[16:1],1bx,,E7/B7/B6/Cf/B2/B3/E3,,
{8}8b<2b[4:1],,8x/3x,,1-5[8:1],,1x/6x,6,6b<4b[4:1],,6x/3x,,5-1[8:1],,5x/8x,8,
{8}7-4[8:1],,73,3-8[8:1],,3/5-1[8:1],,5>2[8:1],
{8},5<8[8:1],,5,,2,1b/2b,,
{8}73,,5q1[8:1],2q6[8:1],5,2,,
{8}8b>3[8:1]*<5[8:1],,8bw4b[8:1],,8b,,2-6[8:1],2,4q8[8:1],
{8}4,1-5[8:1],1,6-1-7-4[8:3],6,4,3>5[2:1],2,
{8},,,,,,{16}4x,5x,4x,5x,
{8}4b>6b[4:1],,4x/7x,,5-1[8:1],,5x/2x,2,2b>8b[4:1],,2x/7x,,1-5[8:1],,1x/4,4,
{8}4-7[8:1],,46,6-2[8:1],,6/1>4[8:1],,1<6[8:1],
{8},1-5[8:1],,1,,8,7b/3b,,
{8}45,,2-5[8:1],7-1[8:1],2,7,,4b<7[8:1]*>1[8:1],
{8},4bw8b[8:1],,4b,,2-6[8:1],2,5<8[8:1],
{8}5,3p7[8:1],3,6v1<4[8:3],6,1,2-8-4[8:3],3,
{8},,,,,3,12,81,
{16}7x-3[12:1],,,7/2x-8[12:1],,,2x,,,,5,,61,,72,,
{16}3x-6[12:1],,,3/8x-5[12:1],,,8x,,,,4,,3,,2h[4:1]/5h[4:1],,
{8},,8-4b[8:1]/7-3b[8:1],,78,,2,2<5[4:1],,5p3[8:3],,8,7h[4:1],,,2xh[4:1],
{16},,4,3,5,,8-4[8:1],7,1,,,B2/B3/E3,,,6xh[4:1],,
{16},,3,5,2,,6-2[8:1],4,7,,,E8/E1/A8,,,7-4-6-1[8:3],,
{8}4,7,2,3q5[8:3],,8,7,6,
{8},2/8b,3b/4,1b/7,6b/5,7,18,12,
{16}3x-8[12:1],,,3/7x-4[12:1],,,7x,,,,5,,64,,73,,
{16}2x-6[12:1],,,2/8x-4[12:1],,,8x,,,,3,,2,,1h[4:1]/5h[4:1],,
{8},,6<1b[8:1]/2>5b[8:1],,62,,8,8-4-2[4:1],
{8},2-6-8-2[8:3],,1,3h[4:1],,,8xh[4:1],
{16},,2,1,3,,6-2[8:1],5,7,,,E1/B8/B1,,,3xh[4:1],,
{16},,6,4,7,,3v8[8:1],5,2,,,B1/B2/E2,,,4-6-1-3[8:3],,
{8}6,4,8,7p5[8:3],,2,2,1bh[8:7],
{8},E4,E3,E2,E1,E8,E7,{16}4,5,
{16}4w8b[8:1],,,,B7/B6/B2/B3/Cf,,,,6,,7,,38,,2,,
{16}16,,7qq4[8:3],8,,8,7,,,,1x,,1x,,,,
{16}3v8[8:1],,,4,3,,5,,6<1[8:1],,,2,6,,3,,
{16}4x-8-2-5[8:2],,7,7x,,6,6x,,,,7x,,7x/8x,,1x/8x,,
{12}2x-6[8:1],,1,2>5[8:1],,8,{8}2,6x,7x/6x,7x/8x,
{12}8x<5[8:1],,1,{8}8-4[8:1],2x,8,3x,3x/2x,1x/2x,
{12}1x-6[8:1],,5,1-4[8:1],,5,{8}1,6x,6x,7x/5x,
{4}8x<5b[8:1]/4x>1b[8:1],8-3b[8:1]/4-7b[8:1],8-4b[8:1]/4-8b[8:1],Cf,
{8}5,6,71,8h[4:1]/2h[4:1],,,,7-4[8:1],
{8}4<7[8:1],7-2[8:1],2<4[4:1],3,,,,,
{8}1,2,35,4h[4:1]/6h[4:1],,,,5<8[8:1],
{8}7>2[8:1],1>4[8:1],3<1[4:1],C/B1/B2,,,,,
{8}3,2,17,8h[4:1]/2h[4:1],,,,1-3[8:1],
{8}5-7[8:1],1-5[8:1],5pp1[4:1]*qq1[4:1],,,,,,
{8}6,7,28,1h[4:1]/7h[4:1],,,,2-5[8:1],
{8}8-4[8:1],2<2b[4:2],8,2,,8b,7b,6b,
