&title=fairy stage
&artist=C-Clays
&first=0.514
&des=Tane
&freemsg=
&wholebpm=128
&des_1=Tane
&des_2=Tane
&des_3=Tane
&des_4=Tane
&des_6=Tane
&lv_1=1
&lv_2=2
&lv_3=5
&lv_4=7
&lv_5=12
&lv_6=11
&inote_5=(128)
{16}4,,3,4,
,3,4,,
3,4,3,,
5,,5,,
{16}4,,3,4,
,3,4,,
3,4,3,,
2,,,,
{16}4,,3,4,
,3,4,,
3,4,3,,
4,,4,,
{16}5,,5-1[8:1],,
,,3-8[8:1],,
,,6,,
7,,,,
{16}5,,6,5,
,6,5,,
6,5,6,,
4,,4,,
{16}5,,6,5,
,6,5,,
6,5,6,,
7,,,,
{16}5,,6,5,
,6,5,,
6,5,6,,
5,,5,,
{16}4,,4-8[8:1],,
,,6<4[4:1],,
,,6/1b,,
,,,,
{16}25,,3,4,
,6,5,,
3,4,3,,
5,,56,,
{16}47,,2,1,
,6,5,,
2,1,2,,
38,,,,
{16}56,,7,8,
,3,4,,
6,5,6,,
4,,25,,
{16}34,,7,8,
,2,1,,
3,4,3,,
25,,,,
{16}74,,6,5,
,3,4,,
6,5,6,,
4,,43,,
{16}52,,7,8,
,3,4,,
7,8,7,,
61,,,,
{16}43,,2,1,
,6,5,,
3,4,3,,
5,,74,,
{16}38,,1/2-6[8:1],,
,,1V75[8:1],,
,,,,
,,4,,
{16}3,,,2q4[8:5],
,,,,
,,,,
,,5,,
{16}5h[2:1],,,,
,,,,
,,,,
,,4,,
{16}3,,,2^7[8:5],
,,,,
,,,,
,,6,,
{16}5h[8:3],,,,
,,4h[4:1],,
,,3,,
,,3,,
{16}2,,,1qq4[8:5],
,,,,
,,,,
,,5,,
{16}5h[2:1],,,,
,,,,
,,,,
,,3,,
{16}2,,,1pp8[8:3],
,,,,
,,,,
,,7,,
{16}6,,,5pp4[8:3],
,,,,
,,,,
,,3,,
{16}2,,,1qq4[16:9],
,,,,
5,,,,
4>7[8:5],,,,
{16}5,,,,
5,,,,
5,,,,
5,,3,,
{16}52,,,1p6[16:9],
,,,,
5,,,,
6<3[8:5],,,,
{16}5,,,,
6,,,,
7,,,,
8,,2,,
{16}38,,,4p1[16:9],
,,,,
8,,,,
1V36[8:5],,,,
{16}8,,,,
8,,,,
8,,,,
8,,2,,
{16}83,,,4^7[16:9],
,,,,
8,,,,
7p4[8:5],,,,
{16}8h[4:1],,,,
,,,,
5h[4:1],,,,
,,,,
{16}25,,3,4,
,8,7,,
2,1,2,,
7,,56,,
{16}34,,7,8,
,6,5,,
1,2,1,,
38,,,,
{16}34,,2,5,
,8,7,,
5,6,5,,
8,,12,,
{16}34,,6,1,
,7,8,,
4,3,4,,
25,,,,
{16}74,,6,5,
,1,2,,
7,8,7,,
2,,43,,
{16}65,,2,1,
,3,4,,
8,7,8,,
61,,,,
{16}65,,7,4,
,1,2,,
4,3,4,,
1,,87,,
{16}16,,2/5-2[8:1],,
,,2V85[8:1],,
,,,,
,,,,
{16}3,,3,5,
1,,7,5,
1,,8,,
,8,4,6,
{16}2,4,8,6,
1,,6,4,
1,3,8,,
2,,,,
{16}3,,3,5,
1,,5,3,
7,,6,,
,1>7[8:5],,3,
{16}3h[2:1],,,,
,,,,
,,,,
,,2,,
{16}6,,6,4,
8,,2,4,
8,,1,,
,1,5,3,
{16}7,,48,,
26,,6,2,
4,,51,,
37,,,,
{16}6,,6,4,
8,,4,6,
2,,3,,
,8<2[8:5],,6,
{16}6h[2:1],,,,
,,,,
,,,,
,,,,
{16}1>1[2:1]*<1[2:1],,,,
,,,,
,,,,
,,,,
{16}2-6[8:1],,2,,
1V75[8:1],,1,,
,,,,
,,4,,
{16}4-8[2:1],,,,
,,,,
,,,,
,,,,
{16}34,,1,7,
,5,6,,
3,5,1,,
8,,78,,
{16}56,,1,7,
,3,4,,
1,7,5,,
38,,,,
{16}25,,7,1,
,5,3,,
7,5,1,,
2,,38,,
{16}64,,7,1,
,4,3,,
4,2,8,,
37,,,,
{16}65,,8,2,
,4,3,,
6,4,8,,
1,,21,,
{16}43,,8,2,
,6,5,,
8,2,4,,
61,,,,
{16}74,,2,8,
,4,6,,
2,4,8,,
7,,61,,
{16}25,,3/4v3[8:1],,
,,3>4[4:1],,
,,,,
,,,,
{16}2q4[2:1],,,,
,,,,
,,,,
,,,,
{16}5q8[2:1],,,,
,,,,
,,,,
,,,,
{16}3p5[2:1],,,,
,,,,
,,,,
,,,,
{16}6V82[2:1],,,,
,,,,
,,,,
,,,,
{16}4q1[2:1],,,,
,,,,
,,,,
,,,,
{16}8-5[2:1],,,,
,,,,
,,,,
,,,,
{16}3qq6[2:1],,,,
,,,,
,,,,
,,,,
{16}8V64[2:1],,,,
,,,,
,,,,
,,,,
{1},,,,,,
&inote_6=(128)
{16}4,,3,4,
,3,4,,
3,4,3,,
5,,5,,
{16}4,,3,4,
,3,4,,
3,4,3,,
2,,,,
{16}4,,3,4,
,3,4,,
3,4,3,,
4,,4,,
{16}5,,5-1[8:1],,
,,3-8[8:1],,
,,6,,
7,,,,
{16}5,,6,5,
,6,5,,
6,5,6,,
4,,4,,
{16}5,,6,5,
,6,5,,
6,5,6,,
7,,,,
{16}5,,6,5,
,6,5,,
6,5,6,,
5,,5,,
{16}4,,4-8[8:1],,
,,6<4[4:1],,
,,6/1b,,
,,,,
{16}25,,3,4,
,6,5,,
3,4,3,,
5,,56,,
{16}47,,2,1,
,6,5,,
2,1,2,,
38,,,,
{16}56,,7,8,
,3,4,,
6,5,6,,
4,,25,,
{16}34,,7,8,
,2,1,,
3,4,3,,
25,,,,
{16}74,,6,5,
,3,4,,
6,5,6,,
4,,43,,
{16}52,,7,8,
,3,4,,
7,8,7,,
61,,,,
{16}43,,2,1,
,6,5,,
3,4,3,,
5,,74,,
{16}38,,1/2-6[8:1],,
,,1V75[8:1],,
,,,,
,,4,,
{16}3,,,2q4[8:5],
,,,,
,,,,
,,5,,
{16}5h[2:1],,,,
,,,,
,,,,
,,4,,
{16}3,,,2^7[8:5],
,,,,
,,,,
,,6,,
{16}5h[8:3],,,,
,,4h[4:1],,
,,3,,
,,3,,
{16}2,,,1qq4[8:5],
,,,,
,,,,
,,5,,
{16}5h[2:1],,,,
,,,,
,,,,
,,3,,
{16}2,,,1pp8[8:3],
,,,,
,,,,
,,7,,
{16}6,,,5pp4[8:3],
,,,,
,,,,
,,3,,
{16}2,,,1qq4[16:9],
,,,,
5,,,,
4>7[8:5],,,,
{16}5,,,,
5,,,,
5,,,,
5,,3,,
{16}52,,,1p6[16:9],
,,,,
5,,,,
6<3[8:5],,,,
{16}5,,,,
6,,,,
7,,,,
8,,2,,
{16}38,,,4p1[16:9],
,,,,
8,,,,
1V36[8:5],,,,
{16}8,,,,
8,,,,
8,,,,
8,,2,,
{16}83,,,4^7[16:9],
,,,,
8,,,,
7p4[8:5],,,,
{16}8h[4:1],,,,
,,,,
5h[4:1],,,,
,,,,
{16}25,,3,4,
,8,7,,
2,1,2,,
7,,56,,
{16}34,,7,8,
,6,5,,
1,2,1,,
38,,,,
{16}34,,2,5,
,8,7,,
5,6,5,,
8,,12,,
{16}34,,6,1,
,7,8,,
4,3,4,,
25,,,,
{16}74,,6,5,
,1,2,,
7,8,7,,
2,,43,,
{16}65,,2,1,
,3,4,,
8,7,8,,
61,,,,
{16}65,,7,4,
,1,2,,
4,3,4,,
1,,87,,
{16}16,,2/5-2[8:1],,
,,2V85[8:1],,
,,,,
,,,,
{16}3,,3,5,
1,,7,5,
1,,8,,
,8,4,6,
{16}2,4,8,6,
1,,6,4,
1,3,8,,
2,,,,
{16}3,,3,5,
1,,5,3,
7,,6,,
,1>7[8:5],,3,
{16}3h[2:1],,,,
,,,,
,,,,
,,2,,
{16}6,,6,4,
8,,2,4,
8,,1,,
,1,5,3,
{16}7,,48,,
26,,6,2,
4,,51,,
37,,,,
{16}6,,6,4,
8,,4,6,
2,,3,,
,8<2[8:5],,6,
{16}6h[2:1],,,,
,,,,
,,,,
,,,,
{16}1>1[2:1]*<1[2:1],,,,
,,,,
,,,,
,,,,
{16}1V75[8:1],,1,,
2-6[8:1],,2,,
3,,3V17[8:1],,
,,4,,
{16}4-8[2:1],,,,
,,,,
,,,,
,,,,
{16}34,,1,7,
,5,6,,
3,5,1,,
8,,78,,
{16}56,,1,7,
,3,4,,
1,7,5,,
38,,,,
{16}25,,7,1,
,5,3,,
7,5,1,,
2,,38,,
{16}64,,7,1,
,4,3,,
4,2,8,,
37,,,,
{16}65,,8,2,
,4,3,,
6,4,8,,
1,,21,,
{16}43,,8,2,
,6,5,,
8,2,4,,
61,,,,
{16}74,,2,8,
,4,6,,
2,4,8,,
7,,61,,
{16}25,,3/4v3[8:1],,
,,3>4[4:1],,
,,,,
,,,,
{16}2q4[2:1],,,,
,,,,
,,,,
,,,,
{16}5q8[2:1],,,,
,,,,
,,,,
,,,,
{16}3p5[2:1],,,,
,,,,
,,,,
,,,,
{16}6V82[2:1],,,,
,,,,
,,,,
,,,,
{16}4q1[2:1],,,,
,,,,
,,,,
,,,,
{16}8-5[2:1],,,,
,,,,
,,,,
,,,,
{16}3qq6[2:1],,,,
,,,,
,,,,
,,,,
{16}8V64[2:1],,,,
,,,,
,,,,
,,,,
{1},,,,,,
