&title=Ice Heaven of Lazulite
&artist=irucaice feat. 初音ミク
&first=0.69
&des=Tomato feat. mikaza
&lv_5=14+
&inote_5=(214)
{4}
2/8,
{8}
1,7,1,8,2h[4:1],,1,3,4h[4:1],,3,
{8}
4,3>8[2:1],4,3,,6,6,,7,7/8,,,,
{8}
8,7,1,6,2,5,3/4,,3/4,4,2h[4:1]
,,5,2,5h[4:1],,3-8>1-5[6:4],,3/6,6,,,A7h[1:1]/D8h[1:1]/E8h[1:1],,,,,
{8}
2,2,3,3,,4/5,,6/5,,
{32}
6b/5b,7,8,1,2,3,4,5,
{8}
6/2x,,2,,2/7h[8:1],,7h[4:1],
{16}
2b,3,4,,
{16}
6,5,
{8}
6h[4:1],,
{16}
8,1,2,3,4/8-3[6:1],5,6,7,8,,,,
{16}
7b,6,5,4,8b,7,6,5,1b,8,7,6,2b,1,8,7,6,A5,E5,B4,B3,E3,A2,,7xh[4:1],,,,
{8}
3xhb[4:1],,,4xhb[4:1]/5hbx[4:1],,,1hbx[4:1]/2hbx[4:1],,,,
{16}
7,8,7,8,7hbx[8:1],,6hbx[8:1],,5hbx[8:1],,,,
{1}
4bs8[3:4]/3bz7[3:4],,
{8}
2h[1:1]/4,,,,5,,6qq1[1:1],,6,,,,
{8}
2h[4:1],,,,2-6[2:1],,2,,,,7>5[5:4],,7h[1:1],,,,,,,,
{8}
6,,,,
{8}
8,,7/1,1,7h[2:1],,
{8}
2,,2,2,3/4,,4/5h[4:1],,3,3,2/4,,5/7,,
{8}
2-5[8:1]/4-8[8:1],2/4,,,
{8}
7-4b[8:1]/5,5/7,,,
{8}
3h[4:1],,4,3,3h[4:1],,5,3,6h[4:1],,5,6,6h[4:1],,4,6hx[8:1],3h[4:1],,4,3/5,3h[4:1]/6,,7,3,8h[4:1],,1,8,2/8h[4:1],,2>1[2:1],2/7,2,,,,,,
{8}
5,5,6h[2:1]/4,,5,4,3,2/6,,1x/5x,1h[4:1]/5h[4:1],,
{16}
,2/6,3/7,8/4,,,,,
{16}
1b/5b,2/6,3/7,8/4,,,,,
{16}
1h[16:1],,1h[16:1],,1h[16:1],,2,,4,,6/8qq5[17:60],,
{1}
,,4qq1b[14:20],,
{8}
2/4,,3/5,3/5,,1/8,1/8,,4/6,4/6,5/3,2/4,Cf/1b,,,,
{8}
1>5[4:1],,5<1[4:1],,1-3-5[4:1],,5-7-1[4:1],,1>5[4:1],,5<5[2:1],,,,,,
{16}
7,6,7,6,7,6,7,5,6,4,6,4,6,4,6,4,
{8}
7b,,2,,8,,6,,
{8}
8/2-4-6[4:1],,6z2[4:1]/2,,8,8-4b[8:1],8,,
{8}
1b-6v3[3:1],,7,8,,6,5h[4:1],,
{8}
2-4v7[3:1],,2/5,,6,,5-1[8:1],5,
{8}
2-4-8[4:1],,6,5,,5,1qq3[3:1]/5,6,
{8}
1/7,,,,
{8}
7h[8:1],,8-6[8:1]*-5[8:1],,8-2[8:1]*-3[8:1],,8b,,5pp8[2:1],5,1-4[4:1],,1,,,,
{8}
2/6,2/6,
{16}
2,3,4,5,6,7,8,1,2,D7,A6,D6,A5,D5,A4,D4,A3,,,,1-4[8:1],,,,1-6[8:1]/7x,,,,1-4[8:1]/3x,,,,1b,,,,
{8}
6,,5/4,5/4,
{8}
,,4/2,,4/6,
{16}
3,5,3,5,2,,1/7-4-7[4:1],,1,,1b/7x-2[8:1],,,,,,,,,,,,
{8}
3b,5b,1b,7b-4[8:1],1-5[8:1],7,1-3[8:1],8h[4:1],1-5[8:1],,1-3[8:1],7,7/1-5[8:1],,1,6,6h[8:1],,
{16}
6,5,6,5,7b,,,,3,4,3,4,2b,,,,
{16}
8,7,1,6,2,5,2,5,2b,3,4,,1bx,2,3,4,
{16}
1,,,,1h[2:1],,2b,3,4,5,6,7,8,,
{8}
,2/8,2h[4:1]/8h[4:1],,,
{16}
1-4[8:1],,,,1-6[8:1]/7x,,,,1-4[8:1]/3x,,,,1-6[8:1]/7x,,,,1b/3,,,,3,,,,
{16}
3h[4:1]/4,5,6,7,8b,,,,,,,,
{8}
2/4,2h[8:1]/4h[8:1],,7/5,7/5,,1>4[8:1],8,1,8<6[8:1],5,8,
{16}
4,5,4,5,3,6,3,6,2,7,2,7,1,8,1,8,
{16}
2b/7b,3,4,5,6,7,8,1,2/6b,5,4,3,2,1,8,7,
{1}
6b/3b,
{8}
8h/2h,7h/1h,,5h/3h,,,5h/3h,6h/4h,,8h/2h[11:4],,,Cf,,,,
{8}
1h/3h,8h/2h,,6h/4h,,,7h/1h,6h/8h,,3h/5h[11:4],,,Cf,,,,
{8}
8h/2h,8h/2h,,4h/3h,,,5h/3h,6h/4h,,8h/2h[11:4],,,7b,,6b,,
{8}
5b/2,2,2/4,2,2/3,2,2/1,2,8/2,8,8/3,8,
{32}
8/4,3,2,1,8,7,6,5,4,3,2,1,,,,,
{16}
4,1,4,1,4,1,5,2,6,3,2,1,8/7,6,5/1,2,3,4,5/6,7,8,1,2/3,4,5,6h,6h,6h,6h,6h,7xb/5xb,4,
{16}
3,2,1,8,7,6,3,2,1,8,7,6,5,4,3,2,
{16}
1,4,1,4,1,4,5,8,5,8,5,8,5,4,3,2,1/8,7,6,5,4,3,2,,8bx,,1,2,3,4,5,,2bx,,7,6,5,4,
{16}
1,2,3,4,5,6,8bx,,,,
{16}
1/2,,1/2,,1,2,1,2,1b,,3/4,,3/4,,4,3,4,3,4,3,4,3,5,2,4,3,5,2,4,3,5,2,7,6,5,,1,2,3,,7,6,5,,2,3,4,5,
{1}
6b/7b,,,,,
{8}
E1/E2/E8,,,,
{8}
3hb[4:6],,,,7hb[1:1],,,,,,,,
{16}
2,6,2,6,2,6,2,6,3,7,3,7,3-8[8:1],7,3,7,3,,,,,,,,
{8}
6-8-4[4:1]/2,,6,,
{8}
3h[4:1],,4,3,3h[4:1],,5,3,6h[4:1],,5,6,6h[4:1],,4,6hx[8:1],3h[4:1],,4,3/5,3h[4:1]/6,,7,3,8h[4:1],,1,8,1,8h[4:1],2-5-2[3:1],2,2/7,,
{8}
7,7,7h[4:1],3,4,7,7/5,,
{8}
6/5,4,6/5-2[8:1],7,5,,
{16}
8,7,6,5,4/3,,2,,2h[4:1]/7-4[8:1],,,,7p8p4[2:1],,,,7/2,,,,2,,,,3h[2:1],,,,,,,,
{1}
8p1-4<6[1:2],,2hb[1:1],
{8}
,,,,,,
{8}
2/7,,2h[1:1],,,,,,,,
{8}
8,8,1,7,1-5b[8:1],6,6/1b,,
{8}
7-5-3[4:1],,3-5-7[4:1]/7,,1,1-5b[8:1],1,,
{8}
8b-4-6[4:1],,2/8x,2,,3,
{8}
7-5-1[3:1]/4h[4:1],,7,,,,3,,4-8[8:1],,
{8}
7-5-1[4:1]/4,,1,1,,2,3-5-2[3:1]/4,3,
{8}
3,,7h[4:1],,
{8}
,,8-6[8:1]*-5[8:1],,8-2[8:1]*-3[8:1],,8b,,
{16}
7,6,5,4,
{8}
3/1b-5[8:1],,1-3[8:1],8h[4:1],1-5[8:1],,1-3[8:1],7,7/1-5[8:1],,1,6-1[8:1],6h[8:1],3,3h[4:1],,
{16}
8,2,8,2,7,1,7,1,2xb/6bx,,4/8,,3/7,2/6,1/5h[3:1],8,7,6,,4,3b,,,,,,,,
{16}
2/6,,2/6,,2/6,3/7,8/4,,
{8}
4x/8x-5[8:1],,8-3[8:1],4,8-5[8:1],6,8-3[8:1],4,8,4,
{16}
5h,6,7,8,1,2,3,,
{16}
6,5,6,5,7b,,8/4,,1/5h[4:1],,,,8,,,,3,4,3,4,2b,5,3,4,2,5,3,4,2,,1x/5x,,2-4[8:1]/4-6[8:1],,,,2-8-6-4-2[2:1]/4,,,,,,,,,,,,
{16}
7,,7h[16:6],,,,,,1,,8,,1,,8,,2-6[8:1],,2/6-2[8:1],,2,,,,7-4[8:1],,7,,7,,2,,3,,3,,4h[4:1]/6,,,,,,,,
{8}
2/4,3/5,6/4,7b/5b,
{8}
8,8,
{16}
8b/3,4,5,,8b/3,4,5,,7b,2,3,4,5h[2:1],,8b,7,6,,4,3,2,1,8,7,6,5,4,3,
{32}
2,1,8,7,6,5,4,3,
{16}
2b,1,8,7,2x,3,4,5,2x,1,8,7,6/5,4,3,2,1h[4:1],,8,,7,,6,,5,,4,,3x,,,,,,,,,,,,,,,,
{2}
E2/A2/D2/A1,A7/E7/E8,
{16}
2,3,4,5,7,6,5,4,2,3,4,5,7,6,5,4,
{1}
3b-6b[2:1],
{4}
2>5[6:1]/8<5[6:1],2v5[6:1]/8v5[6:1],8x/2x,C,
{4}
1>4[6:1]/4,
{8}
1-5[6:1]/4,5,
{8}
1,6,6,6/4,7h[4:1]/3,2,1h[2:1],6,5-1[6:1],5,5,2,3,4,5<8[6:1]/8<5[6:1],8/5,,,1/4,2/3,2h[2:1]/3,,,,5,6,7,7,7-4-6[4:1],,7/8-3-1[4:1],,8,,5-1[8:1],,5-3>6-4[2:1],,,,B1/B8,,,,Cf/1w5[2:1],,,,,,,,
{8}
7-4-6[4:1],,7/8-3-1[4:1],,8,,5-1[8:1],,5-2[8:1],,5-7[8:1],,5-2[8:1],,5,,C,,
{8}
8/4,8/4,3/7h[4:1],,2,8,2/7,,
{16}
1,7,1,7,1,,3/6,,3/6,,4/5,,,,,,
{4}
E3,E7,E1,E4/E6,
{16}
2,7,2,7,2,,,,1/8,,,,7/4,,,,
{16}
6,5,6,5,7b,,,,3,4,3,4,2b,,,,,,,,5/1,,,,,,,,
{4}
2/B6h[1:2],
{8}
E2,
{8}
E3,A3,,E4,,B3,,B2,,E2,,A1,,D2h[1:2],,A7,E7,B6,,E5,,A5,,A6,,A7,,D8,A8,E8h[1:1]
,E2,A2,,B2,,E3,A3,D4,,
{1}
6<6[1:9],,,,,,
{8}
,,,,,,E5,,B4,B3f,,E
