&title=オレンジ
&artist=トーマ feat.初音ミク
&first=0.927
&des=Kurage
&lv_5=13+
&inote_5=(90)
{4}
1-4[4:1],,6>3[4:1],,
1-4[4:1],,8qq8[4:1],,
1h[4:1],{8}8,1,26,{16},4,4qq5[8:3],,5pp4[4:1]*pp4[4:1],,
{4},,{8},{64}4,5,,,,,,,{16}36,3h[16:1]/6h[16:1],,,
{8}45,6,57,6,45,3,24,3,45,36,{16}8,8,1,1,27,,4b/5b,,,,4,5,
3b>6[16:3]/6b,,,6,6<4[32:7],,,4,4,,5,,6,,6,5,
7<2[16:3],,,2,2>8[32:7],,,8,8,,1,,2,,2,1,
3>6[16:3],,,6,6<4[32:7],,,4,4,,5,,6,,6,5,
4b/8b,,3-5[12:1]/6-1[12:1],,2,,3b/6b,,,,48,,7,7,5,,
5b<2[16:3]/4b,,,3,3>5[32:7],,,5,5,,4,,3,,2,4,
1>6[16:3],,,7,7<1[32:7],,,1,1,,8,,7,,6,8,
5<2[16:3],,,3,3>5[32:7],,,5,5-1[32:3],,,4,4,,4,,
3bqq4[4:1]/7b,,,5,5,,,6,6,,45,,45,,,,
5,5,4,4,6,6,5,5,7,4,5,3h[8:1],,4,3,4,
2,2,4,4,3,,8,,7,5,6,5h[8:1],,7,5,7,
5,5,6,6,4,4,5,5,3,6,5,7h[8:1],,5,6,5,
6-4[12:1],,7,,3>8[12:1],,2,,5,,7,,65,,,,
4,4,5,5,3,3,4,4,2,5,4,6h[8:1],,5,6,5,
7,7,5,5,6,4,8,2,4,3,5,4h[8:1],,5,4,5,
3,3,4,4,2,,5,4,6,3,4,2h[8:1],,4,3,4,
3<5[12:1],,6,6qq5[32:5],,8,8,8h[16:3],,,,,37,3,5,,
{8}
4-8[12:1]/1-3[12:1],65,,,7-5[12:1]/4-8[12:1],12,,,
1-5[12:1]/4-8[12:1],67,,,2b/3b,{16}5,4,6,6,5,,
{8}
5-1[12:1]/7,3h[8:2]/4,,,5-1[12:1]/7,3h[8:2]/4,,,
7b/3b-1[16:1],4,5-3[16:1],6,7-5[16:1],1,{16}3,3,4,,
{8}
4-8[12:1]/2-5[12:1],65,,,8-4[12:1]/6-1[12:1],12,,,
2V46[8:1]/6V82[8:1],48,,,3b/7b,{16}4,5,3,3,4,,
{8}4b/2b-6[12:1],{16}6,,2/8<5[12:1],,7,3,3>8[12:1],,2,4,4,,5,4,
{8}3-8[12:1]/6-1[12:1],1>4[12:1]/8<5[12:1],3b/6b,,{16}37,37,5pp4[32:7],4,26,,5b/3b<1[16:3],,
2,,8V64[8:1],2-6[12:1],,,4,2-8[16:1]*-4[16:1],,8,,2,,6,6-2[12:1],,
75,,8>4[8:1]*<4[8:1],,,,8,,,3,3,4,42,1,5,7,
3b-5[16:1]/7b-1[16:1],,15,,37,,84,8<5[12:1]/4>1[12:1],,15,,84,,2,2,6,
1b-6[16:1]/7b-2[16:1],,4w8[12:1]/8,,,,4bpp4[16:3]*qq4[16:3],,,,,,,,35,,
2b/6b,,{16}3,3,{8}2/4-8[12:1],5,6-2[12:1],7,8-4[12:1],1,
2,{16}3,3,4,6,2,4,5/4>5[32:7],,63,63,,5,5,,
1-6[12:1]*-4[12:1],,82,,1,,5,5,6pp5[16:3]`4qq5[16:3]*qq5[16:3],64,73,73,,,,,
{8}3b/7b-4[12:1],68,4b-1[12:1]/7b,35,1b-6[12:1]/4b,28,1b/6b-3[12:1],57,
3b-8[12:1]/6b,24,3b/8b-4[12:1],17,4b>1[12:1]*>1[12:1]`4?<7[12:1]/8b,53,4b,{16}8,8,
{8}6b/2b-5[12:1]*-5[12:1],31,5b-8[12:1]*-8[12:1]/2b,64,8b-3[12:1]*-3[12:1]/5b,71,8b/3b-5[12:1]*-5[12:1]`3?-7[12:1],42,
3b,{16}6,5,8b<5[12:1]`4b>1[12:1]*>1[12:1],,5pp4[16:3]`1pp8[16:3]*pp8[16:3],,8b`4b,,,,,,15,,
{8}3b/7b-3[12:1],68,3b-8[12:1]*-8[12:1]/7b,24,8b-5[12:1]/3b,17,5b-1[12:1]*-1[12:1]/8b,46,
1b-4[12:1]/5b,28,1b/4b-7[12:1]*-7[12:1],35,7b-3[12:1]/4b,68,3b-7[12:1]*-7[12:1]/7b,{16}2,2,
1b-4[12:1]*-4[12:1]`1?-6[12:1],,28,,1b,,5,4,3b/6b,36,4h[16:1]/5h[16:1],,1s5[12:1]*s5[12:1]`8z4[12:1],,,,
1b/8b,,7,3,5<8[12:1],5,4,6,3-6[12:1],3,2,4,1-4[12:1]*-6[12:1],1,8,2,
1,,2,6,4>1[12:1],4,5,3,6-3[12:1],6,7,5,8-5[12:1]*-3[12:1],8,1,7,
8,,7,3,5-1[12:1],5,4,6,3-7[12:1],3,2,4,5-1[12:1]*-2[12:1],5,4,6,
5<8[12:1],,3,3,5>2[12:1],,7,7,5pp6[8:1]*qq4[8:1],,3,3,5,,,,
{32}7/3h[8:1],6,{16}5,,{32}7/1h[8:1],6,{16}5,,{32}7/3h[8:1],6,{16}5,,{32}7/1h[8:1],6,{16}5,,37,3,5,5,
26,,26,8,57,,57,2,34,,34,6,45,,36,,
{8}8b-4[12:1]/7b-5[12:1],5b-1[12:1]/4b,,,3-7[12:1],{16}4h[16:1]/2h[16:1],,{8}5,5b/1bs5[8:5],
{4},,,,
{4}5-1[4:2],5,5,{16}5b-1[12:1]*-1[12:1],5b,,,
{8}1b/5b,3V17[8:1]/7V53[8:1],1,37,{16},5,1,7,37,4,6,2,
7-4[32:3]/1,,4V61[32:5],,73,,2,2-6[32:3],,4,,26,,7,7,3,
8b-3[16:1]/2b-7[16:1],,5w1[12:1]/1,,,,5bpp5[16:3]*pp5[16:3]`5?qq5[16:3],,,,,,,,64,,
7b/3b,,{16}6,6,{8}7/5q1[12:1],4,3-7[12:1],2,1q5[12:1],8,
7V53[48:7]/1<3[48:7],,1b/7b,{16},1,1/8-4[12:1],,26,3bqq1[48:5]/5bpp7[48:5],,1b>7[16:3],,3b/5b,
,,8,,8w4[32:3],,3qq4[4:1]`5pp4[4:1]*pp4[4:1],,8,,,,,,,,
{4}
8-5[4:1],,3<6[4:1],,
8-5[4:1],,1pp1[4:1],,
8h[4:1],{8}1,8,73,{16},5,5pp4[8:3],,4qq5[4:1],,
{4},,,,{8},2<7[8:1],,
