&title=心を刺す言葉だけ (feat. 初音ミク & 可不)
&artist=MIMI; 初音ミク; 可不
&first=0.01
&des=柠檬红茶
&clock_count=4
&lv_5=13+
&inote_5=(192)
{1}
,,
{4}
5x/6x,5x/6x,5x/6x,,3x/4x,3x/4x,3x/4x,,4x/5x,4x/5x,4x/5x,
{16}
5,,,5,
{4}
4x,4x/6x,4x/6x,,
{4}
8/7,8/7,8/7,,2/1,2/1,2/1,,1/8,1/8,1/8,
{16}
8,,,8,
{4}
1,2/7,3/6,,
{4}
6h[4:1],5,
{16}
4,,,4,5x,,,,
{4}
3h[4:1],4,
{16}
5,,,5,4x,,,,
{4}
6h[4:1],E2/B2,3h[4:1],B7/E8,
{16}
8,,,8,1,,,1,7b<5[8:1],,,,,,,,
{4}
3h[4:1],5,
{16}
6,,,6,4x,,,,
{4}
5h[4:1],4,
{16}
3,,,3,5x,,,,
{4}
6h[4:1],A2/D3,4h[4:1],A8/D8,
{16}
4,,,4,6,,,6,3<5[8:1],,,,,,,,
{4}
6h[16:3],E2,3h[16:3],
{16}
B6,B5,B4,B3,
{4}
1h[4:1],7h[4:1],8w4[8:1]b,
{16}
E1/E8/B8f,,,,
{16}
7,,,7,5,,,5,4,,,4,2,,,,
{16}
7>2[4:1],,,,2<7[4:1],,,4h[16:5],,,,,,,,,
{16}
3/6,,,,5,,,5,2,,,2,8,,,,
{16}
3>7[4:1],,,,7<3[4:1],,,6h[16:5],,,,,,,,,
{16}
5<7[12:1],,,5,4,,,,3>1[8:1],,,3,4,,,,
{4}
8-6[8:1]*-4[8:1],,
{16}
1-3[8:1]*-5[8:1],,,,,,,,6,,,6,2,,,
{16}
2,1,,,1,8,,,8,7,,,7-2[12:1]*-5[12:1],1,,,,
{16}
,,,6x,4,,,4,5,,,5<8[8:1]*>2[8:1],3,,,,
{16}
,,,7x,1,,,1,8,,,8w4[8:1],2,,,,
{16}
,,,2x,8,,,8,1,,,1w5[8:1],7,,,,
{16}
,,,3x,5,,,5,4,,,4-1[8:1]*-7[8:1],6,,,,
{16}
,,,3x,8,,,8,1,,,1,4,,,4,2,,,2,8,,,8,
{4}
5<3[4:1],7h[16:3],
{16}
,,,6,2,,,2,7,,,7,1,,,1,8,,,8,2-6[12:1],,,,
{4}
2/7-4[12:1],1-5[12:1]/7,1/8<5[12:1]*>3[12:1],8b,
{4}
1>5[4:1],5<1[4:1],1>5[4:1],5<1[4:1],
{4}
1>5[4:1],5<1[4:1],1,
{16}
C,,,7,
{4}
7h[4:1],5h[4:1],4h[4:1],2h[4:1],
{16}
8,,,8,3,,,3,
{2}
5b-7[12:1]*-1[12:1],
{4}
8V64[4:1],4V28[4:1],8V64[4:1],4V28[4:1],
{4}
8V64[4:1],4V28[4:1],8,
{16}
C,,,7,4,,,4,6,,,6,2,,,2,5,,,
{16}
5,4qq1[8:3],,,,5-8[8:1],,,,
{4}
Cf,,
{16}
1,,,1,7,,,7,5,,,5,3,,,3,
{16}
1,,,1,7,,,7,5,,,5,3,,,3,
{4}
1-5[12:1],1/7-3[12:1],2>5[12:1]/7,2/8<5[12:1]b,
{4}
4b>1[12:1]b/8x,4b<7[12:1]b,4b,A2/A6/B2/B6/C,
{8}
5-7[12:1],,4h[16:3],,5-1[12:1],,3,,
{8}
4-2[12:1],,5h[16:3],,4-8[12:1],,6,,
{8}
5-7[12:1],,4h[16:3],,5-1[12:1],,3h[16:3],,
{12}
8x,7x,6x,5hx[4:1],,1x,1bxw5[1:3],,,,,,
{1}
,,,,
{4}
B6,B5,B4,,B6,B5,B4,,A3,A4,A5,,B6,B5,B4,,
{2}
4h[4:1]/5h[4:1],4h[4:1]/5h[4:1],
{4}
A7/E8,E1/D1,A2/E2,,
{2}
3h[4:1]/5h[4:1],3h[4:1]/5h[4:1],
{4}
B2/E3,C,E7/B7,,
{2}
6h[4:1]/4h[4:1],6h[4:1]/4h[4:1],
{4}
5/6,4/5,3/4,,
{1}
4-1[2:1]/5-8[2:1],
{4}
2-6[12:1],8<5[12:1],1>4[12:1],Cf,
{16}
2,,,2,4,,,4,5,,,5,7,,,,
{16}
2<7[4:1],,,,7>2[4:1],,,5h[16:5],,,,,,,,,
{16}
6/3,,,,4,,,4,7,,,7,1,,,,
{16}
6<2[4:1],,,,2p6[4:1],,,3h[16:5],,,,,,,,,
{16}
5,,,5,2,,,2,8,,,8,4-8[8:1],,,4,
{2}
5pp1[4:1]*qq1[4:1],
{16}
,,,8x,
{16}
3,,,3,7,,,7,8,,,8,1,,,1,2,,,2,
{4}
4v7[8:1]*v1[8:1],,
{16}
,,,8x,2>4[12:1],,,2,8,,,7-3[8:1]*-5[8:1],7,,,,
{16}
,,,4x,6<8[12:1],,,6,4,,,5<8[8:1]*>2[8:1],5,,,,
{16}
,,,5x,3>1[12:1],,,3,5,,,4-8[8:1]*-6[8:1],4,,,,
{16}
,,,1x,7<5[12:1],,,7,1,,,8w4[8:1],8,,,,
{16}
,,,6x,1,,,1,8,,,8,5,,,5,7,,,7,1,,,1,
{4}
4pp8[4:1]*qq8[4:1],,
{16}
,,,1x,7,,,7,2,,,2,8,,,8,1,,,1,7-3[12:1],,,,
{4}
7/2,8-6[12:1]/1-3[12:1],8b-4[8:1]/1b-5[8:1],8b/1b,
{16}
6-8[12:1],,,6,4,,,,3-1[12:1],,,3,5,,,,
{16}
7>1[12:1],,,7,4,,,,3<5[12:1],,,3,7,,,,
{16}
6v8[12:1],,,6,4,,,,4v2[12:1],,,4,6,,,,
{4}
5-7[12:1]*-1[12:1],5,8w4[12:1],8,
{16}
2>4[12:1],,,2,1,,,,7<5[12:1],,,7,8,,,,
{16}
2>4[12:1],,,2,1,,,,7,,,7,2,,,2,
{4}
4>1[4:1],1<6[4:1],6>3[4:1],3s7[4:1],
{2}
1-5[8:1],
{16}
Cf,,,1,7<5[12:1],,,7,1,,,2-6[8:1]*-4[8:1],2,,,,
{16}
,,,5,3>1[12:1],,,3,5,,,4>1[8:1]*<7[8:1],4,,,,
{16}
,,,4,6<8[12:1],,,6,4,,,5-1[8:1]*-3[8:1],5,,,,
{16}
,,,8,2>4[12:1],,,2,8,,,7<4[8:1]*>2[8:1],7,,,,
{16}
,,,3,5,,,5,1,,,1,4,,,4,2,,,2,8,,,8,
{4}
5qq1[4:1]*pp1[4:1],,
{16}
,,,2x,
{16}
7,,,7,2-6[12:1],,,2,1-5[12:1],,,1,8-4[12:1],,,8,7-3[12:1],,,7,
{4}
1bw5[12:1],1b,8bw4[12:1]b,8b,
{2}
6hx[1:1],E2/B2,3hx[16:15],E8/B7,5hx[1:1],A2/D2,4hx[4:3],A7/D8,
{16}
6,,,6,4,,,4,5,,,5,3,,,3,
{16}
B7,B8,B1,B2,B3,B4,B5,B6,
{2}
Ch[4:1],
{16}
3,,,3,5,,,5,4,,,4,6,,,6h[16:17],
{4}
D2,D8,D3,D7,D4f,
