&title=RGB
&artist=MEMODEMO x AQUASINE
&first=0
&des=REV
&lv_5=13+
&inote_5=(163)
{1},
{16}
,,1-7<6-4[16:8]/8-2>3-5[16:8],,,,,,,,,,,,,,
6h[16:6]/4,,,,,,2,E7,B6,B5,E5/8,,4xpp6[4:1],,,,
1h[4:1],,,,,E6,B5,B4,E4/1,,3x,,2h[4:2],,,,
,,,,4qq3[4:1],,,,6,,6,,7,E4,E5,8h[16:5]/E6,
,,,,1,,2,,7,,6,,3,,5,,
4/6h[8:3],,,,B6,,7h[8:3],,,,B7,,8hb[8:2],,7x-5>4[8:1]*-4[8:1],,
,,7>8-2[8:1]*-2[8:1],,,,7-4-2[4:1]*-3-5[4:1],,,,,,,,,,
2/6h[16:12],,,,,,,,,,,,4-8>1s5[16:16],,Chx[16:18],,
,,,,,,,,,,,,,,,,
,,8,,7,,6,,4/5,,,3/4,,,2/3,,
3h[8:3],,,,1-5-3[4:1],,,,8,,,,8-6-2[4:1],,,,7,,
,,7-4-1[4:1],,,,6,,,,E6,B5,B4,E4,
{12}
1bx,4,8x,5,2x,4,7x,5,3x,4,6x,5,
3,4,2,7-5[12:1],8,,1x-3[12:1]/7b,,1b/4x-8[16:1],,4b,,
,,,,,6q3[4:2],4,,,,,,
2,,,4>7[16:11],,,6,,,4,,,
{16}
3h[16:3],,,,,,,8-4[16:1],1hx[4:1],,,,,,,3/5,
4hx[16:7],,,,,,,,7,6,5,3,2,1,,,
1/5,,2h[16:12],,6h[16:10],,,,,,,,,,,,
4/8-4-6[4:1]*-4-2[4:1],,,,,,,,,,1/3,,2q6[16:3]/4v6[16:3],,5/6,,
,,,,7x,8,7,1,8,,2,,2,,6,,
6,,4v7[8:1],5,,,3,,,,8/6,,5V71[16:3]*q1[16:3],,3/4,,
,,,,2x,1,3,8,2,,5,,6,,4,,
2,,,3/1pp3[8:1]*q5[8:1],,,1,,,,2,5,3,6,4h[16:12],,
8xh[16:6],,,,,,,,2h[16:6],,,,6h[16:6],,,,
1,,1h[16:4],,5,,5h[16:3],,8h[16:3],,4h[16:3],,7h[16:3],,3h[16:3],,
Ch[16:4],,,,,,2b,,1-3-5[16:3]/8-2-4[16:3],,7,,
,,,,6x,4,5,4,5,,6,,2x-8[16:1],,3,,
7x-3[16:1]/2b,,,4x-6[16:1]/7b,,,4b,,,,
8h[16:22]/1h[16:14],,,,,,,,,,,,,,,,,,,,,,1v4b[16:10]*v6[8:2],,,,,,,,,,
(326)
{8},,1,2,
(163)
{16}
3h[16:6],,,,,,4h[16:2],,3,4,2,,,1,,,
4h[16:4],,,,2,1,2,1,3/2,,,,1/4>1[4:1]b,,,,
,,,,4h[4:1],,1,,3h[4:1],,1,,4h[4:1],,1,,
3h[4:1],,1,,2h[4:1],,4,,3h[4:1],,1,,2bxpp4[8:3]b,,4,,
,,,,,,,,1h[4:1],,3,,4h[4:1],,2,,
1h[4:1],,3,,4h[4:1],,2,,1h[4:1],,2,,4h[4:1],,3,,
1h[4:1],,2,,4h[4:1],,3,,1h[4:1],,2,,3bx-7z3[8:7]b,2,4,3,
,,,,5-1[8:3],,,,,,,,,,,,
C,,8/2bx,,3,,5,,6b/8,,,1-5[16:1]/3b,,,1/8b,,
,,7,,5/6,,3,,4/5,,6,,3/4,,5,4,7h[8:2],
,,,5,,3h[8:1]/6,,5h[8:1],,2h[8:1],,4h[8:1],,1,,
1/2,,3,,8/1,,6,8,7,,7,1,,1,5v2[8:1],,
4/2,,,,,,1,,7b/6,,,1/3b,,,2b/5,,
{32}
3,,3,,4,,,,5,,4,,6,,2,3,4,,7,,5,,7,,4,,6,,3,,5,,
{16}
2h[8:1],,1,2,,8,1,,7h[8:1],,8,,6,,1-6-8-5[16:12]*-4-2-5[16:12]/C8,,
,,,,,,
,,,,,,,,,,
2h[4:1],,,,4h[4:1],,,,5h[4:1],,,,7h[4:1],,,,
8,,1hx[1:0],E2,5hx[1:0],E5,2hx[1:0],E3,6hx[1:0],E6,3hx[1:0],E4,7hx[1:0],E7,4hx[1:0],E5,
8h[4:1],,,,2h[4:1],,1,,7h[4:1],,1>5[4:1],,3h[8:2],,,,
,,2,6,3,7,4,4h[16:3],,5,5h[8:2],,,,,,
3x/5,,6,4,7x,3,5q3[4:1],4,6x,2,7hx[8:1],,,,5,,
3/6,,7,3,8,2,1h[4:1],,,,2,,1,,1-3[8:1]/8h[8:6],,
,,1-7[8:1],,,,1,,,,2,,1h[8:6]/2,,8x-6[8:1],,
,,8-2[8:1],,,,8q4[16:3]*qq6[16:3],,,,,,,,,,
5/4h[4:1],,,,3h[4:1],,,,1h[8:4],,B3,,2,,E5,,
7h[8:2],,C,,8,,B1/B6,,3h[8:2],,A2,,1h[8:1],,Ch[16:18],,
8-6[8:1],,,,8-2[8:1],,,,8,,,,3-8[8:1],,,,
,,6x,,5>2[8:1],,4,,1<6[8:1],,8,,4,,3v6[8:1],,
,,5x,,4,,3,,2,1,2,,8,,7v2[8:1],,
,,1x,,8,,7,,6,5,6,,4,,Ch[16:12]/3-1[8:1],,
,,3-5[8:1],,,,3-1-7-5[16:5],,,,,,,,,,
4hx[8:25]/8hx[8:25],,,,,,,,,,,,,,,,
,,,,,,,,,,,,,,,,
,,,,,,,,,,,,,,,,
,,,,
6,,7,,8,,2/1,,,3/2,,,3/4,,
6v1[16:24]/4h[8:8],,,,,,,,,,,,,,,,,4x,4x,4x,4xv1[16:1]*v1[16:1],4x,4x,4x,4bx,,
(326)
{8},,,,,,
(163)
{12}
8,,,7,,6,6/5,,,4,,4,
3,,,2,,1,2/1,,,2,,1,
8h[4:2],,,,,,{96}2,B2,,,,,,,,,,,,,,,1,B1,,,,,,,,,,,,,,,8,B8,,,,,,,,,,,,,,,
7,B7,,,,,,,,,,,,,,,,,,,,,,,,,,,,,,,6x,,,,,,,,6x,,,,,,,,5x,B5,,,,,,,,,,,,,,,,,,,,,,,,,,,,,,,4x,,,,,,,,4x,,,,,,,,
3x<2z6[16:26],B3,,,,,,,,,,,,,,,,,,,,,,,{12},,,,,,,,,
3s7[16:10],,,,,,,,,,,,
8h[16:7]/3h[16:7],,,,,,{384}8v5[16:10],3v8[4:1]b,,,,,,,,,,,,,,,,,,,,,,,,,,,,,,,,,,,,,,,,,,,,,,,,,,,,,,,,,,,,,,,,,,,,,,,,,,,,,,,,,,,,,,,,,,,,,,,{16},,,,
,,,,A6,,,,D7,,,,A7,,,,
{384}D8,A8,E8f,,,,,,,,,,,,,,,,,,,,,,,,,,,,,,,,,,,,,,,,,,,,,,,,,,,,,,,,,,,,,,,,,,,,,,,,,,,,,,,,,,,,,,,,,,,,,,{16},,,,,,,,,,,,
,,D6,,B6,,D7,,B7,,D8,,8<5pp7[16:6],7x<5pp7[16:5],6x>5pp7[16:4],5xpp7[16:3],
,
,,,,,{384}E7,B6,,,,,,,,,,,,,,,,,,,,,,,,,,,,,,,,,,,,,,,,,,,,,,,,,,,,,,,,,,,,,,,,,,,,,,,,,,,,,,,,,,,,,,,,,,,,,,,{24},,,,,,,,,
{384}A8,,,,,,,,,,,,,,,,,,,,,,,,,,,,,,,,,,,,,,,,,,,,,,,,,,,,,,,,,,,,,,,,,,,,,,,,,,,,,,,,,,,,,,,,,,,,,,,,{384}A7,B7,,,,,,,,,,,,,,,,,,,,,,,,,,,,,,,,,,,,,,,,,,,,,,,,,,,,,,,,,,,,,,,,,,,,,,,,,,,,,,,,,,,,,,,,,,,,,,,{384}A6,E6,D6,,,,,,,,,,,,,,,,,,,,,,,,,,,,,,,,,,,,,,,,,,,,,,,,,,,,,,,,,,,,,,,,,,,,,,,,,,,,,,,,,,,,,,,,,,,,,,{384},,,,,,,,,,,,,,,,,,,,,,,,,,,,,,,,,,,,,,,,,,,,,,,,,,,,,,,,,,,,,,,,,,,,,,,,,,,,,,,,,,,,,,,,,,,,,,,,
{32}8v5[8:1],D8,A7,D7,,,,,8<5[8:1],,,,,,,,B5,B6,B7,B8,,,,,,,,,,,,,
{32}5v8[8:1],D6,A6,D7,,,,,5<8[8:1],,,,,,,,B8,B7,B6,B5,,,,,,,,,,,,,
{16},,7<5[8:1],,,7x>8v5[4:1],,,E7,,,,,,,,
{32}5x<8[8:1],,,,,,,,5v8[8:1],,,,,,,,5pp6[4:1],,,,,,,,,,,,,,,,
(326)
{384}B6,E7,,,,,,,,,,,,,,,,,,,,,,,,,,,,,,,,,,,,,,,,,,,,,,,,,,,,,,,,,,,,,,,,,,,,,,,,,,,,,,,,,,,,,,,,,,,,,,,{384},,,,,,,,,,,,,,,,,,,,,,,,,,,,,,,,,,,,,,,,,,,,,,,,,,,,,,,,,,,,,,,,,,,,,,,,,,,,,,,,,,,,,,,,,,,,,,,,
(163)
{16}
B3/B7,,,,8-6-1-5-2[16:16]/4,,,,6,,,,1,,,,
5,,,,2z6[16:6]*-6[16:6],,,,,,,,,,,,
B3/B7,,,,1$/1?w5[27.1#0.2],,,,Ch[8:8]/1$/1?w5[32.5#0.2]*w5[32.5#0.2],,,,,,,,
,,,,,,,,1-5[8:1]b,,,,1x,,,,
E2/E6,,,,3<3[8:4]b/7,,,,,,,,,,,,
,,A2,D2,A1,D1,A8,D8,A7,D7,A6,D6,A5,D5,A4,D4,
A3/7,,,,8-6v5-3[16:14]/4-2v1-7b[16:14],,,,,,,,,,,,
,,,,,,,,7xh[4:2]/3xh[4:2],,,,,,,,
(326)
{8}B3/C/B7,,,,
(163)
{16}
6/4,,3,,5,,2,4,3,1,2,4,3,,2/8,,
4/5,,6,,7V51[4:1],8,6,,7x/8x-4-2[4:1],,1,,,,2qq5[16:14],,
,,,,,,,,,,,,4x>3-1[4:1],,,,4-6<7[4:1],,,,4-8[4:1],,,,,,,,2,,3,,
3h[4:1]/5,,,,6,4,7,5,6,8,7,5,6,,7/1,,
5/4,,3,,2V48[4:1],1,3,,2x/1x-5-7[4:1],,8,,,,7,,
8,,2,,7,,4,5,3,6,2,7,{12}1/8,1/8,1/8,
{16}2hx[4:1],,,,8h[4:1],,,,3,4h[16:3],,,7,6h[16:2],,,
7/3,E8/4hbx[16:2],,,6/2,E6/1hbx[16:2],,,1b/5,1/5b,1b/5,,{32}1xw5[8:1],2,3,4,5,6,7,8,
{16}1bx,,,,4x>3-1[8:1],,2,,4-6<7[8:1]/6,,,4-8[16:1]/2,,,4b,,
6,,8x,,5/2,,4,,1/6,,8,,2/5,,6,5,7h[8:2],
,,,5,,3h[8:1]/6,,5h[8:1],,6h[8:1],,7h[8:1],,2,,
3/8,,1,,4/7,,5,6,5,,7,1,,1,5v2[8:1]*v8[8:1],,
4/2,,,,,,1,,2b/3,,,8/6b,,,7b/4,,
{16}
6,,3,5,3,6,4,6,{24}2,3,7,{16}6,3,5,2,4,5,
7b,,6,8,5-1[8:1]b,7,4,6,,,3,3,1,,1-7<6-4[16:5]/8-2>3-5[16:5],,
