&title=REFLECT (Assertive Hardcore Bootleg)
&artist=Gawr Gura
&first=0.02
&des=心白-HW
&des_5=心白-HW
&lv_5=14
&inote_5=(170){4},,,,,,,,{1}1<3v4[2:3],
,{64},,,8p1[64:21],
{4},,{16},{256}8-5[16:3],8?z4[256:47],{4},{16},,,{64},,,{128},{8}3-8-5[32:15],
,,,,,,4/6,
7,6/4,8,6/4,{16}5,5,{8}5,6/4,
5/3,2,3/5,1,3/5,{16}4,4,{8}4,3/5,
4/6,7,6/4,8,{16}5,5,5,5,{8}5,6/4,
{16}5xh[8:1]/3xh[8:1],,,5xh[8:1]/3xh[8:1],,,{8}4xh[8:1]/6xh[8:1],{16},4xh[8:1]/6xh[8:1],,,{8}5b/3b,4b/6b,
3>1-7[2:1],3,{4}E7/B6/E6,7v4[4:1],B5/E6/E5,
{8}6-8>2[2:1],6,{4}E3/B3/E4,2p5[4:1],B4/E4/E5,
{8}4,4,3/5,5/3,{16}2,6,2,6,1,7,1,7,
8xh[8:1]/2xh[8:1],,,8xh[8:1]/2xh[8:1],,,{8}1xh[8:1]/7xh[8:1],{16},1xh[8:1]/7xh[8:1],,,{4}Cf/B7/B6/B2/B3,
{8}5x/4x,{16}6,5,{8}6,{16}3,4,{8}3,{16}6,5,{8}6,{16}4,5,
{8}3,{16}6,5,{8}7,{16}3,4,{8}2,{16}5,4,{8}6,{16}3,4,
{8}1,{16}6,5,{8}8,{16}2,4,{8}1,{16}7,5,{8}8,{16}E1,C,
{8}E5,{24}E8/E4,B7/B3,B6/B2,{8}E6/E2,D7/E7,E3/D3,{32}E2/E6,B2/B6,B3/B7,B4/B8,{4}E5/E1,
{8}5x/4x,{16}4,4,{8}5,{16}4,4,{8}6,{16}3,3,{8}5,{16}3,3,
{8}4,{16}5,5,{8}3,{16}6,6,{8}4,{16}6,6,{8}2,{16}3,3,
{8}5,{16}4,4,{8}6,{16}5,5,{8}4,{16}5,5,{8}3,{16}E5,C,
{8}E1,{24}E6/E2,B6/B2,B7/B3,{8}E8/E4,D7/E7,E3/D3,{32}E4/E8,B3/B7,B2/B6,B1/B5,{4}E1/E5,
1>4[8:1],A7/D7/A6,{16}6,5,6,5,{8}6,4,
{4}5<8[8:1],A3/D3/A2,{16}2,1,2,1,{8}2,8,
{4}1q5[8:1],A7/D7/D8,{16}6,4,5,3,{8}6,2,
{4}5q1[8:1],A3/D3/D4,{16}2,8,1,7,{8}2,6,
{4}5x/A1/D2/A2,6x/A1/D2/A2,4x/A1/D2/A2,6x/A1/D2/A2,
3x/A8/D8/A7,5x/A8/D8/A7,6x/A8/D8/A7,4x/A8/D8/A7,
{8}5x/7x,7/5,6x/4x,6/4,{16}5x,4x,3x,2x,1/5,8/4,7/3,6/2,
{2}1h[4:1]/5h[4:1],{16}1,8,2,7,{4}1b-3[8:1],
7/1x-5[8:1],1/7x-3[8:1],4/7x-5[8:1],7/4x-2[8:1],
6/4x-8[8:1],4/6x-2[8:1],1/6x-8[8:1],6/1x-3[8:1],
{8}1-6[8:1],{16}4,4,{8}1-4[8:1],5,1-7[8:1],{16}6,6,{8}1pp4pp6[8:5],5,
{4}1,{8}5,6,7,8,{4}1-6[8:1],
1x-4[8:1],1/5x-8[8:1],5x-2[8:1],5/1x<6[8:1],
1x>4[8:1],1/5x<8[8:1],5x>2[8:1],5/1x-6[8:1],
{8}1-4[8:1],{16}3x,2x,{8}1x-5-1[4:1],{16}7x,8x,{2}1x-7[8:1]*-3[8:1],
{16}6xh[8:1]/4xh[8:1],,,5xh[8:1]/3xh[8:1],,,{8}8xh[8:1]/2xh[8:1],{16},7xh[8:1]/1xh[8:1],,,{4}Cf/B2/B6,
{32}1xh[8:1]/5xh[8:1],,,,,2/6,7/3,8/4,{4}1-6[8:1]/5-2[8:1],1>4[8:1]/5<8[8:1],1/5,
{8}1-6[8:1],1,5-1[8:1],5,7-3[8:1],7,8q4[8:1],8,
5-7[8:1],6,3-1[8:1],2,8-6[8:1],7,2-4[8:1],3,
5pp7[6:1]*p1[6:1],5,,,,7/8,6/1,{16}7,7,
{8}8-4[8:1],6,8,{16}7,7,{8}3,1/2,3/8,{16}2,2,
{8}1-5[8:1],3,1,{16}2,2,{8}6,1/2,3/8-6[8:1],4,
8-3[8:1],{16}5,5,{8}8-5[8:1],4,8-2[8:1],{16}3,3,{8}8,4,
{16}1xh[8:1]/3xh[8:1],,,8xh[8:1]/6xh[8:1],,,{8}2xh[8:1]/4xh[8:1],{16},7xh[8:1]/5xh[8:1],,,{4}Cf/E3/E7,
6/3,{8}4/5,{16}6,5,,3,{8}4,{16}5,4,5,4,
{4}6/3,{8}5/4,2/7,{16}1,8,{8}1>3[8:1],1,{16}5,6,
{4}7,{8}1/8,{16}7,5,,2,{8}4,{16}1/5,2/6,3/7,4/8,
{4}5xh[16:1]/1xh[16:1],{8}2xv5[8:1]/6x-1[8:1],4x/8x,{4}2b/6b,Cf/B7/B3,
{16}3b-1[8:1],,,4,{8}3,5,{16}3-7[8:1],,,4,{8}3,5,
{16}6-8[8:1],,,5,{8}6,4,{16}6-2[8:1],,,5,{8}6,4,
3b/1b,3/1,2/8,8/2,1/7,7/1,8/6,8/6,
{16}7,8,7,8,7V13V57[8:3]*<7[8:3],8,7,8,{4},,{12}3,
4,3,6,5,6,2,3,2,7,6,7,
2,1,2,7,8,7,1q5[8:1],8,{3}1,
{12}6,5,7,3,4,2,6,5,8,3,4,1,
6,4,8,3,5,1,{2}Cfh[4:1],
{12}1,2,3,8,7,6,2,3,4,7,6,5,
1,2,3,5,6,7,2,3,4,6,7,8,
3,3,3,1,1,1,7,7,7,5,5,5,
3,3,3,6-1-7[4:1]/2-5-3[4:1],2/6,2/6,,,,,,,8/4,
7,6,5/1,4,3,2/6,1,8,7/3,6,5,
8/4,1,2,3/7,4,5,6/2,7,8,1/5,2,3,
4/8,7,6,5/1,4,3,2/6,1,8,7/3,6,5,
{4}4/8b-3[8:1],4b-7[8:1],2b-5[8:1],6b,
{12}2,3,4,1,2,3,8,1,2,7,8,1,
6,7,8,5,6,7,4,5,6,3,4,5,
2,3,4,3/5,4,5,4/6,5,6,5/7,6,7,
{4}6/8w4[8:3],,,Cfh[4:1],
{1}B7/B6/E7/B2/B3/E3,
,C,
{2}E7,E3,
{16}2/E1,,,2,{8}E6/B6,2,{16}3/E1,,,3,{8}E6/B6,3,
{16}4/E1,,,4,{8}E6/B6,4,{16}3/E1,,,3,{8}E6/B6,3,
2,2,6,6,{16}3,5,3,5,4w8[8:3],4,4,4,
{2}4,{16}1,8,2,7,{4}8x/1x-5[8:1],
{8}1b-3[8:1],8,1-6[8:1],{16}7,7,{8}1-4[8:1],5,{4}1/7-5[8:1],
{8}7-3[8:1],4,7-4[8:1],{16}2,2,{8}7-2[8:1],3,{4}7/1-5[8:1],
{8}1/7-4[8:1],8,7/2-5[8:1],1,2/8-4[8:1],7,8/1,2,
{16}3,4,{8}2/5,{16}6,5,{8}7/4,{16}8,1,7,2,{4}1x/8x-4[8:1],
{8}8b-6[8:1],1,8-3[8:1],{16}2,2,{8}8-5[8:1],4,{4}8/2-4[8:1],
{8}2-6[8:1],5,2-5[8:1],{16}7,7,{8}2-7[8:1],6,{4}2/8-4[8:1],
{8}8/2-5[8:1],1,2/7-4[8:1],8,7/1-5[8:1],2,1/8,7,
{16}6xh[8:1]/4xh[8:1],,,5xh[8:1]/3xh[8:1],,,{8}4xh[8:1]/2xh[8:1],{16},3xh[8:1]/1xh[8:1],,,{8}8x/2x,8x/2x,
1bx,{32}1bx,8x/2x,7x/3x,6x/4x,{4}5x/B5f,{8}4>2[8:1],5<7[8:1],4,5,
1,1,1-3[8:1],1-5[8:1],1-4[8:1],1-6[8:1],,,4>1[8:1],
5,6,7,8<5[8:1],1,2,3,
4qq2[8:1],4pp6[8:1],,,,2-5[8:1],3,{16}2,1,
{8}1,6-1[8:1],7,{16}6,5,{8}5,4>1[8:1],3,{16}4,5,
{8}5,8<5[8:1],7,{16}8,1,{8}1,3/8,1/2-4[8:1],7,
2-6[8:1],{16}5,5,{8}2-5[8:1],7,2-7[8:1],6,2,5,
{16}8xh[8:1]/4xh[8:1],,,1xh[8:1]/5xh[8:1],,,{8}2xh[8:1]/6xh[8:1],{16},3xh[8:1]/7xh[8:1],{32},,,,8x/4x,3x/7x,2x/6x,1x/5x,,,,,{8}6/2h[8:1],
4,2/6h[8:1],4,2/6,{16}4,4,{8}4,2/6,
3/7h[8:1],5,7/3h[8:1],5,7/3,{16}5,5,{8}5,7/3,
6/2h[8:1],4,2/6h[8:1],4,{16}4,3,4,5,{8}4,2/6,
{16}7bh[8:1]/B1/E2/B2,,,7bh[8:1]/A6/D6/A5,,,{8}7bh[8:1]/A1/D2/A2,{16},7bh[8:1]/B6/E6/B5,,,{8}8b/C,8b,
3/7h[8:1],5,7/3h[8:1],5,7/3,{16}5,5,{8}5,7/3,
6/2h[8:1],4,2/6h[8:1],4,2/6,{16}4,4,{8}4,2/6,
3/7h[8:1],5,7/3h[8:1],5,{16}5,6,5,4,{8}5,7/3,
{16}2bh[8:1]/8h[8:1],,,2bh[8:1]/B3/B4/E4/D4,,,{8}2bh[8:1]/8h[8:1],{16},2bh[8:1]/D7/E7/B7/B6,,,{8}1b,1b,
2/6h[8:1],4,6/2h[8:1],4,2/6,{16}4,4,{8}4,2/6,
7/3h[8:1],5,3/7h[8:1],5,7/3,{16}5,5,{8}5,7/3,
2/6h[8:1],4,6/2h[8:1],4,{16}4,5,4,3,{8}4,2/6,
{32}1b,2,3,4,,,1b,2,3,4,,,2b,3,4,5,,,2b,3,4,5,,,{8}1/8,8/1,
7/3h[8:1],5,3/7h[8:1],5,7/3,{16}5,5,{8}5,7/3,
2/6h[8:1],4,6/2h[8:1],4,2/6,{16}4,4,{8}4,2/6,
7/3h[8:1],5,3/7h[8:1],5,{16}5,4,5,6,{8}5,7/3,
{32}8b,7,6,5,,,8b,7,6,5,,,7b,6,5,4,,,7b,6,5,4,,,{8}7bp3b[8:1]*q3b[8:1],8b/6b,
{128}7b,Cf,
E
