&title=It's going down now
&artist=Azumi Takahashi / Lotus Juice
&first=0.015
&des=SnowFox
&lv_5=14
&inote_5=(168)
{4},,,{8},2x,1x>4[8:1],,,5<8[8:1],,,1>4[8:1],,,5<8[8:1],,,1-5[8:1],,,,
7>2[8:1],,,3<6[8:1],,,7>2[8:1],,,3<6[8:1],,,7-3[8:1]b,,1bx,,2bx/4bxh[4:1],,3,5h[4:1]/7,,6,1/4h[4:1],,3,5h[4:1]/8,,6,1-5[8:1]/5,,1,7,8xh[4:1]/4x,,3,5/1h[4:1],,6,8h[4:1]/4,,3,1h[4:1]/5,,6,3/7-3[8:1]b,,71,,2h[8:1]/4h[8:1],,3,4,5,6,4,5,{16}3,4,3,,5,,4,,6,,5,,4,,3,,6,,6h[8:1],,3,,5,4,5,,6,,3,,4,,{12}6x,4x,5x,{16}3,,3,,6,,5,,4q1[16:3],,3,,2w6[8:1],,,,,,,,3,4,2,,6,5,7,,2h[8:1],,1,,7h[8:1],,8,,2,1,2,1,3,,,,7,4,7,4,6,5,6,,4h[8:1],,5,3,5,3,4,,2h[8:1],,8,,7h[8:1],,1,8,2,7,3,6,4h[8:1],,,,3-8[8:1]/5-8[8:1],,,,,,,,1x/7x,2x/6x,3x/5x,,4,,4,,5h[8:1],,4,,3h[8:1],,4,,6h[8:1],,5,,3h[8:1],,4,,7h[8:1],,5,,2h[8:1],,4,,8h[8:1],,6,,1h[8:1],,3,,4xh[8:1],,5h[8:1],,6h[8:1],,7h[8:1],,8h[8:1],,1h[8:1],,2b,,,,3-7[8:1],,4,,35,,,,6-2[8:1],,5,,64,,,,34,,2,,56,,7,,1-5[8:1]b/8-4[8:1]b,,27,,18,,,,36,,2,,18,,7,5h[8:1],,6,4,5,3>8[8:1],,,,3b-5[8:1]b/7b-3[8:1]b,,,,3b/7b,,,,2x/1x,,,8x/1x,,,7x/8x,,{8}1b-5[8:1]/6b,1,6,6,2x-4[8:1],2,7,7,1x-5[8:1],1,8,8,4hx[8:1],{16}6,5,7,,18,,{8}3/7x-5[8:1],7,3,3,8x-4[8:1],8,2,2,7x-5[8:1],7,1,1,{8}2x,1qq2[16:5],8,71,,5xh[4:1],,3,4,5p4[16:5],6,75,,8xh[8:3],,3,3-6[8:1],,8-6-4-2-8[8:5]b*>8[8:5]/3,,E1/B8/E8/A8f,,,,,,,2xh[8:3]/6xh[8:3],,,,5x,{16}7x/8x,,,1x/8x,,,1x/2x,,{8}8b-4[8:1]/3b,8,3,3,7x-5[8:1],7,2,2,8x-4[8:1],8,3>8[8:1]b,3,7<4[8:1]b,7,3qq5[4:2]b,3,3b/7bh[8:3],,,,,8-4[8:1],7,68,,5
h[8:1],3,4h[8:1],6,5,7-2[8:1]/3-6[8:1],,37,,,34,2,1/8pp4[16:8],,7x/8x,,7,,6,6-1[8:1],,6/3,,{32}8bx/4V68[16:5],7,6,5,,,,,{8}3,3,2h[4:1],,7,,{32}2bx/6V42[16:5],3,4,5,,,,,{8}7,7,8h[4:1],,1h[8:1],,{32}2x/8<5pp4[4:6]x,3x/7x,4x/6x,5x,,,,,{8}1,,1h[8:1],,,2,,1,1h[8:1],,1h[8:1],,2h[8:1],,4xh[2:3]/3,,1,,1h[8:1],,,8h[8:1],,8h[8:1],,8,1-5[8:1],,1,,6/E4/A3,,8/A5/E5,,8h[8:1],E4/A3,,7/A5/E5,,8,8h[8:1],E4/A3,8h[8:1],,7h[8:1],,6/E4/A3,,8/A5/E5,,8h[8:1],E4/A3,,1h[8:1]/A5/E5,,8,8,7b/3bh[4:1],
,{16}5,4,6,,37,,2bx/6bx,,1>4[8:1]/5,,8,,7,,6h[4:1],,,,1,,8,,37,,2/6,,51,,5x/1x,,E5/B5/B4/B6/B3/B7/B2/C,,,,1x,,1x,,2bx/6bx,,3>8[8:1]/7,,4,,5,,6h[4:1],,,,1,,2,,7/3,,6<1[8:1]/2,,5,,4,,3h[4:1],,,,4,,4,,{8}3bx/4bx,2,3/4,1,3/4,8,3/4,7,6/5,7,6/5,8,6/5,1,6/5,2,34,45,{12}6,5,7,{8}1h[8:1],4h[8:1],3h[8:1],{16}E5,E6,E7,E8,E1,,2-6[8:1],,2,,2/8w4[8:1]b,,,,8b,,,,2x/6xh[4:1],,,,7x-2[8:1],,7,,6-3[8:1],,6,,7-2[8:1],,7,,6-3[8:1],,6,,1-5[8:1],,,,16,,,,7,,8,,1x/2x-4[8:1],,2,,1-5[8:1],,1,,2-6[8:1],,2,,1-7[8:1],,1,,2-4[8:1],,2,,1-5[8:1],,1,,2<4[4:1]b,,,,E6/B6/A6f,,,,8xh[4:1],,,,2,,3,,45,,6,,17,,2,,8-4[8:1]/3,,8,,2>5[8:1],,2,,6-1[8:1],,,,64,,,,B5/2,,3,,4,,5,,6/B2/E2,,7,,8,,1,,2b/E6f/B6/B5,,,,3h[4:1],,,,{24}4x,5,6,7,8,1,2,3,4,5,6,7,{8}8b/2x>5[8:1],2,6,6,1x>4[8:1],1,5,5,8x>3[8:1],8,4,4,{8}1hx[8:1],{16}7,5,6,,18,,{8}2/7x<4[8:1],7,3,3,8x<5[8:1],8,4,4,1x<6[8:1],1,5,5,1x,2/8>7[8:2],37,4-8[8:1]b,,,,6,54,3<2[8:2]/6,27,8-5[8:1]b,,,,34,4-8[8:1]/3,,4bx/3bx-5-2-6>1[8:7]b,,3,7,,8h[8:1],,8h[8:1],,7bh[8:3],,8,8,,{24}1x/6x,2,3,4,5,6,7,8,1,2,3,4,{8}5b/8x<5[8:1],8,4,4,7<4[8:1],7,3,3,6>3[8:1],6,2-5[8:1]b,2,6-1[8:1]b,6,3pp8[4:2]b,3,3b/6bh[8:3],,,,,7-4[8:1],8,7x/1x,,2h[8:1],5,7h[8:1],4,53,6-1[8:1]/4-8[8:1],,64,,,65,7,8/1qq5[16:8],,2x/1x,,2,,3,3-8[8:1],,3/6,,{32}1bx/5V31[16:5],2,3,4,,,,,{8}6,6,7h[4:1],,2,,{32}7bx/3V57[16:5],6,5,4,,,,,{8}2,2,1h[4:1],,8h[4:1],,{32}1x,2x/7x,3x/6x,4x/5x,,,,,{8}1xh[4:1],,8x,{16}3,4,2,,1x/5h[4:1],,,,2,,8x/4h[4:1],,,,8x,,3,5,2>5[8:1],,1,,27,,,,8x,,,,8x/4,,7,5,6,,8x<5[8:1]/4h[4:1],,,,8,,,,34,,8x-4[8:1]b/1x,,7,,6x/8x,,,,5h[4:1],,,,1xh[4:1],,,,8x,,7,5,6,,8x/4h[4:1],,,,7,,1x/5h[4:1],,,,1x,,6,4,7<4[8:1],,8,,72,,,,1x,,,,1x/5,,2,4,3,,1x>4[8:1]/5h[4:1],,,,1,,6,,7bx-4[8:1]b,,,,78,1,2,,8,1,2/5bx,
