&title=Tempestissimo[DX]
&artist=t+pazolite
&first=0.2
&des=カザリア
&lv_6=14+
&inote_6=(231.04)
{1}5h[1:2],
{1}B5,
{1}4h[1:2],
{1}B4,
{1}6h[1:2],
{1}B6,
{16}4x,5x,4x,5x,4x,5x,4x,5x,4x,3x,2x,1x,8x,7x,6x,5x,
{4}Cf/4x,,,3,
{1}2h[1:2]/4,
{1}B2,
{1}5h[1:2],
{1}B5,
{1}4h[1:2],
{1}B4,
{4}8,8-4b[8:17],,,
{1},
{8}8b-4[8:1],8b,,,,,,,
{16}3,4,2,,1,,78,,16,,25,,34,,25,,
{1}1b-5b[8:1]/6b,
{16}6,5,7,,8,,21,,83,,7h[16:1]/4h[16:1],,65,,74,,
{4}3^8[4:1],8^5[4:1],5^2[4:1],2^7[4:1],
{4}7<3[4:1],3>7[4:1],7<3[4:1],3,
{8}7,56,2,34,5,46,3,24,
{16}5,6,7,8,2,3,4,5,8b,,2b/6b,,3b/5b,,,,
{16}7,,6,5,6,,4,,2-4[8:1],,5-1[8:1],,2,,5,,
{16},,8,7,6h[8:1],,,,4,,4,,35,,35,,
{16}2,,3,4,3,,5,,7-5[8:1],,4-8[8:1],,7,,4,,
{16},,1,2,3h[8:1],,,,7,,5,,56,,56,,
{8}6xpp1[1:1],,5x,,4,4,,3,
{16},,2,3,4h[8:1],,,,8,,7,,65,,5/4,,
{8}34,2,18,,{16}2b/8b,,,7b/3b,,,4b/6b,,
{16},,5,4,5,,36,,1x-5[8:1]/8x-4[8:1],,3x/6x,,1x/8x,,,,
{16}2b-6[8:1],,,,2b/1b-5[8:1],,,,1/8,,,4/6,,,1/8,,
{16},,6,5,7,,18,,2/7,,3/4,,4/5,,5/6,,
{16}7b-3[8:1],,,,7b/8b-4[8:1],,,,8/1,,,5/3,,,8/1,,
{16},,3,4,2,,81,,7/2,,6/5,,5/4,,4/3,,
{8}2-4[8:1],1-5[8:1],2,1,8-4[8:1],7-5[8:1],8,7,
{8}1,1,28,28,37,37,46,46,
{16}3,5,3,5,4,6,4,6,1,8,3,6,2,7,4,5,
{16}3,5,2,4,3,5,4,6,5,7,2,4,3,7,5,6,
{1}3b>6b[2:3],
{1},
{8}4/3,2q6[8:1]/5,,8-4[8:1]/2,,8/1-5[8:1],,1/7p3[8:1],
{8},78,1,,8w4[8:1],,8,,
{8}6b,7b^4b[8:1],,7b/1b-5b[8:1],,1b/8b-4b[8:1],,8b/2b-6b[8:1],
{8},1b/2b,8b,,1bw5b[8:1],,1b,,
{8}3b,2b^5b[8:1],,2b/8b-4b[8:1],,8b/1b-5b[8:1],,1b/7b-3b[8:1],
{8},8b/7b,1b,,8bw4b[8:1],,8b,,
{1}Cf,
{1},
{1},
{1},
{16}3,4,3,,6,5,6,,3,4,2,,6,5,7,,
{16}3,4,1,,6,5,8,,3,5,1,,6,4,8,,
{16}2,1,2,1,3,8,3,8,4,7,4,7,5,6,5,6,
{24}5,4,3,2,1,8,7,6,5,4,3,2,1-5[8:1],,,,,,1,,,,,,
{8}4x,3x/5x,2x-7-4-8[2:1]/6x,,2/5h[8:1],,6h[8:1],,
{8}7,65,4,35,2-5[8:1]*-6[8:1],,2,,
{8}7x,8x/7x,8x/7x-4-6-1[2:1],,7/1h[8:1],,2h[8:1],,
{8}3,45,7,56,4xw8[8:1],,4x,,
{8}2,34,4-8>4[2:1]/5,,4/6h[8:1],,7h[8:1],,
{8}6-4-7[4:1],6,4,3,1-6[8:1]*-4[8:1],,1,,
{8}5,46,3/7-2-5-1[2:1],,7/4h[8:1],,3h[8:1],,
{8}2,34,5-1[8:3],64,,,,,
{16}2,,4,3,4,,5,,7/4,,5,6,5,,4,,
{16}3,4,2,6,5,7,2,4,3-1[8:1]*-8[8:1],,,,3,,,,
{16}7,,5,6,5,,4,,2/5,,4,3,4,,5,,
{16}6,5,7,3,4,2,7,5,6-8[8:1]*-1[8:1],,,,6,,,,
{16}2,,4,3,4,,5/2,,6-1[8:1]/1-4[8:1],,,,6/1,,,,
{8}5,4/6,3v8b[8:1]/7v4[8:1],,3/7,,1/5,,
{8}2,34,7,56,1,34,8,65,
{4}1b-5b[8:1],1bw5b[8:1],,,
{16}3h[16:1],4h[16:1],3h[16:1],4h[16:1],3h[16:1],4h[16:1],3h[16:1],4h[16:1],2h[16:1],5h[16:1],2h[16:1],5h[16:1],2h[16:1],5h[16:1],2h[16:1],5h[16:1],
{8}1,1,2/8,2/8,3-1[8:1]/7-5[8:1],,3/7,,
{16}8h[16:1],7h[16:1],8h[16:1],7h[16:1],8h[16:1],7h[16:1],8h[16:1],7h[16:1],1h[16:1],6h[16:1],1h[16:1],6h[16:1],1h[16:1],6h[16:1],1h[16:1],6h[16:1],
{8}2,34,45,56,7-2[8:1]/6-3[8:1],,7x/6x,,
{8}1-4[8:1],8,7,,5-1[8:1]/6-2[8:1],,56,,
{8}3-8[8:1],4-7[8:1],3,4,1,2,8,7,
{8}6,6,57,57,46,46,35,35,
{16}2,4,2,4,3,5,3,5,4,6,4,6,5p4[2:3],7,5,7,
{1}5x,
{1},
{2}1bh[4:1]/8bh[4:1],2bh[4:1]/7bh[4:1],
{2}3bh[4:1]/6bh[4:1],4bh[4:1]/5bh[4:1],
{8}3-6[8:1],3,7-2[8:1],7,3-6[8:1],3,7-2[8:1],7,
{4}4<8[4:1],8>4[4:1],4<8[4:1],8,
{16}1,2,3,4,7,6,5,4,2,3,4,5,8,7,6,5,
{16}34,,,25,,,25,,1-5[8:1]/6-8[8:1],,,,16,,,,
{8}2,34,4/5-7[8:1],,4/5,3,2-4[8:1],,
{4}2-6[8:1],2^5[8:1],2^7[8:1],2,
{8}3,45,5/6-8[8:1],,56,4,3,,
{16}2,,8,1,8,,27,,4x-8[8:1]/5x-1[8:1],,2x/7x,,4x/5x,,,,
{8}56,4,56,7,56,3,1b/8b,,
{8}75,6,45,3,1b-5b[8:1]/2b-4b[8:1],,1b/2b,,
{8}6,7,18,7,56,4,13,2,
{16}1x/8x,2x/7x,3x/6x,,3x/6x,,4x,,5x,,,3x,,,6x,,
{1}4>5[2:3],
{1},
{16}4,5,4,5,4,5,4,5,3,6,3,6,3,6,3,6,
{16}2,7,2,7,2,7,2,7,1b-5b[8:1],,,,1b,,,,
{8}46,37,2/8^6[8:1],,8-4[8:1],3,8,2,
{4}1-6[8:1]/8-6[8:1],1-3[8:1]/8-3[8:1],1^4[8:1]/8^5[8:1],18,
{16}1,8,2,4,3,5,4,6,3,4,2,6,5,7,1,8,
{16}1h[8:1],,,2h[8:1]/8h[8:1],,,37,,4-8[8:1]/6-4[8:1],,,,46,,,,
{8}1bx,8bx/2bx,,3bx/7bx,,{16}5,4,6,,37,,
{8}1-5[8:1],8-4[8:1],1,8,3-1b[8:1]*-6b[8:1],,3b,,
{8}8bx,1bx/7bx,,6bx/2bx,,{16}4,5,3,,62,,
{16}17,,8,7,8,,16,,2b,,3b/4b,,4b/5b,,,,
{8}7,56,2,34,8,56,1,34,
{8}5,46,3,24,1,78,16,16,
{16}2b,3,4,5,6,7,8,1,2/7b,6,5,4,3,2,1,8,
{24}1b/7,2,3,4,5,6,7,8,1,2,3,4,{32}5,6,7,8,1,2,3,4,5,6,7,8,1,2,3,4,
{1}5bx-1[8:15],
{4},,5b-1b[8:1],5b,
{8}2,3^8[8:1]/4,,3/5-1[8:1],,5/4-8[8:1],,4/6^1[8:1],
{8},56,4,,4w8[8:1],,4,,
{16}2b,,3b/4b,,,,5,4,6,,3,4,2,,6,5,
{8}7,1b/8b,2b/7b,,8bw4b[8:1],,8b,,
{16}6b,,7b/5b,,,,4,5,3,,6,5,7,,3,4,
{8}2,8b/1b,7b/2b,,1bw5b[8:1],,1b>1b[2:3]*<1b[2:3],,
{1},
{1},
{4}E2,E3,E4,E5,
{4}E6,E7,E8,E1,
{8}1b,1,2b/8b,28,3b/7b,37,4b/6b,46,
{8}3b/5b,4,5b/7b,6,1b/4b,2,8b/5b,7,
{16}3,4,2,7,5,6,3,4,2,8,1,7,5,6,4,5,
{16}3b,,,2b,,,1b,,8b,,,7b,,,6b,,
{1}5bw1b[8:17],
{4},5x,5x,5x-1b[8:1],
{1}5b,
E
