&title=灼熱Beach Side Bunny
&artist=DJ Mass MAD Izm*
&first=0
&des=もふもふウサギ
&lv_1=2
&lv_2=5
&lv_3=8
&lv_4=12
&lv_5=14
&inote_1=(153){1},
8,,7,{4},,6b,,
{1}
1,,2,,3,,4-8[2:3],,
8,,7,,6,,5,,
1,1,2,2,3,3,4h[1:1],,
5,5,6h[1:1],,4,4,3h[1:1],,
7,,8,,1-5[2:3],,
6h[1:1],{4},,,6b,
{1}
1,1,2h[1:1],,8,8,7h[1:1],,
6,6,5,5,4,4,3,3,
2-6[2:3],,7-3[2:3],,1h[1:1],,8h[1:1],,
4,4,4h[1:1],,
5,5,5h[1:1],{2},{16},,,4b,{4},
{1},,E
&inote_2=(153){1},
1h[1:1],,8h[1:1],{2},1b/8b,
{4}
2,2,,,3,3,,,7,7,,,6,6,,,
45,45,,,18,18,,,
{2}
4,4,5h[4:3],,
{1}
6-1[16:23],,3-8[16:23],,{4}7,7,7,,4,4,4,,5,5,5,,2,2,2,,
8,8,8,,7h[2:1],,,,7,7,7,,6h[2:1],,,,
1,1,1,,2h[2:1],,,,2,2,2,,3h[2:1],,,3b,
{1}
3q1[4:5],,7q5[4:5],,4q2[4:5],,8q6[4:5],,
{4}
1,1,1,,6h[2:1],,,,5,5,5,,2h[2:1],,,,
3v8[16:23]/4v7[16:23],,,,,,,,
1,,1,,8h[2:1],,,8b,
{1}
2q8[4:5],,6q4[4:5],,1q7[4:5],,5q3[4:5],,
{4}
4,4,4,,3h[2:1],,,,2,2,2,,1h[2:1],,,,
5,5,5,,6h[2:1],,,,7,7,7,,8h[2:1],,,8b,
2,2,3,3,3h[2:1],,,,7,7,6,6,6h[2:1],,,,
{1}
2-5[16:23],,7-4[16:23],,
{4}
1,1,6,6,7h[2:1]/8h[2:1],,,,
7-4[16:23]/8-3[16:23],,,,,,,,
8,8,3,3,1h[2:1]/2h[2:1],,,,
{1}
1-6[16:23]/2-5[16:23],,,,E
&inote_3=(153){2},,
1h[2:1],7,1-4[2:1],,5h[2:1],3,{4}6h[4:1],5,5b/6b,,
2,2h[8:5],,,5,5h[8:5],,,4,4h[8:5],,,7,7h[8:5],,,
3-7[8:5],,,,6-2[8:5],,,,
1h[4:1],7,8h[4:1],2,45,45,45,2b/7b,
1,1,17,,3,3,34,,8,8,28,,{8}6,5,6,5,6,,18,,
{4}
2h[4:1],1,3h[4:1],4,5^8[8:5],,,,
4^1[8:5],,,,{8}7,8,7,8,6h[4:1],,5,,
{4}
3h[2:1],4,4,,6h[2:1],7,7,,2h[2:1],8,8,,1-4[8:5],,,,
6h[2:1],5,5,,3h[2:1],2,2,,7h[2:1],1,1,,45,36,27,1b/8b,
{1}
2-7[2:1],6-3[2:1],1-4[2:1],5-8[2:1],
3-6[2:1],7-2[2:1],4-1[2:1],8-5[2:1],
{4}
3h[4:1],4h[4:1],3q8[4:3],,,,,,7h[4:1],8h[4:1],7q4[4:3],,,,,,
{8}5,3,5,3,5h[4:1],,,,{4}4h[4:1]/6h[4:1],,4h[4:1]/6h[4:1],,
7h[4:1],8,2h[4:1],1s5[4:3],,,,,
{1}
2^5[2:1],6^1[2:1],3^8[2:1],7^4[2:1],
1-6[2:1],7-4[2:1],2-5[2:1],8-3[2:1],
{8}
7,8,7,,1h[8:3]/6h[8:3],,,,2,1,2,,3h[8:3]/4h[8:3],,,,
6,5,6,,6h[8:3]/5h[8:3],,,,4/5-8[8:5],,,,,,,,
2,1,2,,3h[8:3]/8h[8:3],,,,7,8,7,,5h[8:3]/6h[8:3],,,,
3,4,3,,{4}3h[8:3]/4h[8:3],,34,25,16,7b/8b,
6h[4:1],5,6h[4:1],4,{8}7,8,7,,78,,,,
3h[4:1],,4,,3h[4:1],,5,,2,1,2,,12,,,,
{1}
8-5[8:5],1-4[8:5],8-5[8:5],4v1[2:1]*v7[2:1],
{4}
2h[4:1],1,3h[4:1],8,{8}4,5,4,,45,,,,
{4}
7h[4:1],8,7h[4:1],6,56,45,34,,
7h[4:1]/8h[4:1],,2h[4:1]/5h[4:1],,{8}3,4,3,,34,,,,
{4}
6p3[4:5],,,,,,{16},,,2b,{4},
{1},,E
&inote_4=(153){4},,,,
2h[4:1],5h[8:5],4h[8:3],,
4pp6[2:1]/5qq3[2:1],,,,
7h[4:1],4h[8:5],5h[8:3],,
4/5v2[4:1]*v8[4:1],,,,
3h[4:1]/4,4^7[4:1],,,2/8h[4:1],2-5[4:1],,,
5/6h[4:1]/,5^2[4:1],,,1h[4:1]/7,7-4[4:1],,,
2/8h[4:1],2p5[4:1],,,4h[4:1]/6,6p1[4:1],,,
{12}2,8,2,8b,,,7,1,7,1b,,,4,5,4,5,4,5,4,5,4,5b,,,
{4}
2h[4:1],1,{16}38,,,38,,,38,,{4}6h[4:1],5-2[4:1],,,
7h[4:1],8,{16}16,,,16,,,16,,{4}3h[4:1],4-7[4:1],,,
6h[4:1],5h[4:1],4h[4:1],3^8[4:1]*p7[4:1],,,{16}16,,,16,,,16,,
{4}
2h[4:1],3h[4:1],4h[4:1],5V31[4:1]*v8[4:1],,,{16}18,,,27,,,36,,
{2}
2h[4:1]/8-4[8:1],{16}35,,,35,,,35,,
{8}
6h[4:1],8,8>4[4:1]*q5[4:1],,,,,,
2h[8:1],4,3h[8:1],5,{16}4,,,35,,,26,,
{8}
7h[8:1],4,5q2[4:1]/6^1[4:1],,,,,,
1-5[8:1]/7h[4:1],,,,{16}46,,,46,,,46,,
{8}
3h[4:1],1,1p4[4:1]*<5[4:1],,,,,,
7h[8:1],5,6h[8:1],4,{16}5,,,46,,,37,,
{8}2h[8:1],5,3h[8:1],6,{4}4,4b-2[8:1]/5b,
5-1[8:1],4-2[8:1],5-1[8:1],4b-8[8:1],
5-7[8:1],4-8[8:1],5-7[8:1],4b-2[8:1],
5-1[8:1],4-8[8:1],5-7[8:1],4b-1[8:1],
5-8[8:1],4p3[4:1],5,5b-7[8:1],
4-8[8:1],5-7[8:1],4-8[8:1],5b-1[8:1],
4-2[8:1],5-1[8:1],4-2[8:1],5b-7[8:1],
4-8[8:1],5-1[8:1],4-2[8:1],5b,
6h[8:1],7h[8:1],{16}1,8,1,8,1,8,1,8,
{4}1s5[8:5],,,,8z4[8:5],,,,
3h[8:7],5,{16}4,,,4,,,4,,
{4}
2h[8:7],6,{16}5,,,5,,,5,,
{8}3b/4b,3b/4b,3bqq8[4:3]/4bpp7[4:3],3b/4b,{4}3b/4b,,
,,{16}56,,,56,,,56,,
{4}
4^1[4:1],,5^8[4:1],,2h[2:1],7h[4:1],,1b/8b,
2-5[8:1],6V82[4:1],4h[4:1],,
7-4[8:1],3V17[4:1],5h[4:1],,
1-5[8:1],7V13[4:1],4h[4:1],,
8-4[8:1],2V86[4:1],5h[4:1],,
3-8[8:1],7V53[4:1],1h[4:1],,
6-1[8:1],2V46[4:1],8h[4:1],,
4-8[8:1],6V82[4:1],1h[4:1],,
5-1[8:1],3V17[4:1],8h[4:1],,
1-5[8:1]/7,7,{16}46,,,46,,,46,,
{8}
3,,2>7[8:3]/4,,5h[8:3],,,,
6/8-3[8:1],,6-1[8:1],,{16}2,,,3,,,45,,
{8}
6h[4:1],,7>3[4:1]*q4[4:1],,,,,,
4-8[8:1]/6h[4:1],,,,{16}17,,,17,,,17,,
{8}
2,,1/3>6[8:3],,8h[8:3],,,,
5-2[8:1]/7,,7-4[8:1],,{16}3,,,2,,,18,,
{8}
7h[4:1],,6h[4:1],,5w1[8:1],,,,
3h[4:1],4,5-1[8:1],,2-4[8:1],,8,,
6h[4:1],5,4-8[8:1],,7-5[8:1],,1,,
2h[8:3],3,4<8[4:1],5h[8:3],,,,,
6h[8:3],5,4>8[4:1],3h[8:3],,,,,
{4}
7h[4:1],8h[4:1],1h[2:1],,
2h[4:1],3h[4:1],4h[2:1],,
7h[4:1],6h[4:1],5h[2:1],,
4v1[4:1]*v7[4:1],,,,
{8}
8h[4:1],2,3-5[8:1],,6-2[8:1],,2,,
1h[4:1],8,7-4[8:1],,2-7[8:1],,7,,
6h[8:3],5,4>8[4:1],3h[8:3],,,,,
2h[8:3],1,8<4[4:1],7h[8:3],,,,,
4h[4:1],6,7-1[8:1],,2-6[8:1],,6,,
5h[4:1],4,3-8[8:1],,6-3[8:1],,3,,
2h[8:3],8,7<3[4:1],6h[8:3],,,,,
7h[8:3],2,1>5[16:3],8,{16},,,1b,{4},
{1},,E
&inote_5=(153){4},,,,
2v5[8:1]/8v5[8:1],28,{16}4h[16:3],,,3h[16:3],,,2,,
{4}2qq7[2:1]/3q6[2:1],,,{8},8,
{4}1v4[8:1]/7v4[8:1],17,{16}12,,,78,,,{8}4/5v2[8:1],
4/5v8[8:1],,,,2b/7b,,,,
2pp5[8:5]/8h[8:1],,7h[8:1],,{16}6,,,6,,,6,,
{4}3h[8:1]/6qq8[8:5],2h[8:1],{16}1,,,1,,,1,,
{4}1h[8:1]/7qq4[8:5],2h[8:1],{16}3,,,3,,,3,,
{4}3pp1[8:5]/6h[8:1],7h[8:1],{16}8,,,8,,,8,,
{4}8pp5[8:5]/2h[8:1],3h[8:1],{16}4,,,4,,,4,,
{4}4qq1[8:5]/6h[8:1],7h[8:1],{16}8,,,8,,,8,,
{12}
3-6[8:1]/7-2[8:1],37,37,3b/7b,,,
1-6[8:1]/5-2[8:1],15,15,1b/5b,,,
7b-4[8:1],7,7,2b-5[8:1],2,2,8b-4[8:1],8,8,1b,,,
{4}2-5[8:1]/5-1[8:1],2/5>8[8:3],{16}8,,,7,,,6,,
{4}1-6[8:1]/6-3[8:1],1/6<3[8:3],{16}4,,,5,,,6,,
{4}4-8[8:1]/7-4[8:1],4<1[8:3]/7,{16}1,,,2,,,3,,
{16}3-8[8:1]/4,,5,,34,,6,,7-4[8:1],8,7,8,7,,3,,
1,2,3,4,1-5[8:1],8,7,6,1,,,8,4,8,4-8[8:1],,
3,,45,,7pp4[8:3],,,,1,,,2,,,3,,
2,4,2-6[8:1],,2,8,2,,7,7,,45,4^2[8:1]/5p1[8:1],,36,,
4q8[8:1]/5^7[8:1],,,,4>5[8:3]/5p4[8:3],,,,45,,,,,,,,
{8}1-5[8:1]/7h[8:1],2,1-4[8:1]/6-1[8:1],,
{16}1<5[8:1]/6,,,5,,,3-7[8:1],,
2,,34,,5pp8[8:3],,,,3,,,2,,,1h[8:1],,
{8}7^4[8:1],8,1-5[8:1]/7,2,{16}1/5>8[8:1],,,8,,,7-4[8:1],,
{8}6,7/8-3[8:1],1,7V15[4:1]/8,{16}4-2[8:1],,,4,,,,,
{8}7h[8:1]/8-4[8:1],1,3-8[8:1]/8-5[8:1],,
{16}3/8>4[8:1],,,4,,,6-2[8:1],,
7,,56,,4qq1[8:3],,,,6,,,7,,,8h[8:1],,
{8}2^5[8:1],1,2/8-4[8:1],7,{16}4<1[8:1]/8,,,1,,,2-5[8:1],,
{8}3,1-6[8:1]/2,8,12,5w1[8:1],,,,
{16}
45,,{24}7/8-5[8:1],1,2,{16}3,,8,,{24}4-7[8:1],3,2,{16}1,,3b-6[8:1]/4b,,,,
3b/8b,,7h[4:1],,{24}5-1[8:1],4,3,{16}2,,4-8[8:1]/5,,3,,4b/5b,,,,
{24}7,6,5,{16}4-8[8:1],,2h[8:1],,4b,,{24}1-5[8:1],2,3,{16}4,,1b/2b-7[8:1],,,,
2,,6h[4:1],,{24}8-4[8:1],1,2,{16}3,,1w5[8:1]/8,,2,,1b,,,,
2h[4:1],,{24}1-4[8:1],8,7,{16}6,,1b,,{24}5-2[8:1],6,7,{16}8,,5b/6b-3[8:1],,,,
1b/6b,,2h[4:1],,{24}4-8[8:1],5,6,{16}7,,4/5-1[8:1],,6,,4b/5b,,,,
{24}2,3,4,{16}5-1[8:1],,7h[8:1],,5,,{24}8-4[8:1],7,6,{16}5,,7b/8b,,,,
6,,3,,7,,2,,18,18,18,18,{32}1b/8b,2,3,4,5,6,7,8,
{16}
1v4[4:1],,,,4V26[8:3],,,,5,,,6,,,7,,
8v5[4:1],,,,5V71[8:3],,,,4,,,3,,,2,,
3,4,3,,5<1[8:3],2,5,,1,,,2,,,3,,
4h[8:1],,8h[8:1],,5q2[8:3],,6h[8:1],,5,,,7h[16:3],,,,,
1b/8b,,1b/8b,,1bpp4[8:3]/8bqq5[8:3],,1b/8b,,1b/8b,,,,,,,,
2-5[8:1]/6-1[8:1],,,,26,,,,4h[8:1]/8h[8:1],,,3h[8:1]/7h[8:1],,,26,,
5h[8:3],,3,3h[16:3],,,,,28,,28,2h[16:3]/8h[16:3],,,,,
1h[8:1],,7h[8:1],,1pp4[8:3],,7v4[4:1],,1,,,,,,,,
{8}2h[8:1]/5,{24}1,8,7,{8}6V48[4:1],1-3[8:1],6,1,,4h[8:1],
{24}8,7,6,5h[8:1],,,8V62[4:1],1,2,{8}3-5[8:1],8,3,,,
{24}56,4,3,{8}2h[8:1],8V61[4:1],2-5[8:1],8,2,,{24}4,3,2,
1h[8:1],,,3,4,5,{8}6V84[4:1],3-1[8:1],6,3,,2h[8:1],
{24}5,6,7,{8}8h[8:1],3V51[4:1],8-6[8:1],3,8,,5h[8:1],
{24}1,2,3,4h[8:1],,,1V37[4:1],8,7,{8}6-4[8:1],1,6,,3h[8:1],
{24}4,5,6,{8}7h[8:1],1V38[4:1],7-4[8:1],1,7,,{24}5,6,7,
8h[8:1],,,6,5,4,{8}3V15[4:1],6-8[8:1],3,6,,27,
{8}1-5[8:1]/8,2,1/7-4[8:1],8,{16}4<8[8:1]/7,,,3,,,3,,
{8}1-5[8:1]/2,8,1/2-6[8:1],3,{16}2/6V42[8:1],,,7,,,7,,
{8}3-8[8:1]/6,4,3/6-1[8:1],5,{16}1V75[8:1]/6,,,2,,,2,,
{8}3/4-7[8:1],5,2-6[8:1]/4,2,2/6V42[8:1]*V82[8:1],,,,
{8}1/8-4[8:1],7,2-5[8:1]/8,1,{16}2/5>1[8:1],,,6,,,6,,
{8}7/8-4[8:1],1,7-3[8:1]/8,6,{16}3V57[8:1]/7,,,2,,,2,,
{8}3/6-1[8:1],5,3-8[8:1]/6,4,{16}3/8V24[8:1],,,7,,,7,,
{8}5-2[8:1]/6,4,5/7-3[8:1],7,1w5[8:1]/7,,1b,,
7-4[8:1],1h[8:1],7,{16}3,3-8[8:1],,25,,34,4,,6,,
{8}4-8[8:1]/5,3,45,{16}6,6-1[8:1],,47,,56,5,5h[16:1],,,
7,8,6,6,2,1,3,3,5h[16:3],,,1,{8}1-4[8:1]/5-8[8:1],26,
1-6[8:1]/5-2[8:1],,1pp8[8:3]/5pp4[8:3],,15,,,,
3h[8:7],,6,,{16}6,,,6h[16:19],,,,,
{8}4,,4,,{16}4,,,4h[16:19],,,,,
{8}7,,7,,{16}7,,,7h[16:3],,,,,
{8}5qq2[2:1]/8v5[8:1],,,,,,,,
8-4[8:1],4h[8:1],8,{16}2,2-5[8:1],,37,,26,6-1[8:1],,7,,
{8}4-8[8:1]/6,3,45,{16}7,7^4[8:1],,18,,3,2,1h[16:1],,,
{24}2,3,4,1,2,3,7,6,5,8,7,6,{16}1h[16:3]/5,,,8,{8}1/8-4[8:1],7,
2-5[8:1]/8,3,1V73[4:1]/2,6-4[8:1],1,6,,26,
1-5[8:1],5h[8:1],1,{16}7,7-4[8:1],,26,,37,3-8[8:1],,2,,
{8}5-1[8:1]/3,6,45,{16}2,2^5[8:1],,18,,6,7,8h[16:1],,,
{24}7,6,5,8,7,6,2,3,4,1,2,3,{16}4/8h[16:3],,,1,{8}1-5[8:1]/8,2,
1/7-4[8:1],6,3-6[8:1]/7-2[8:1],2,{16}37,,,
{24}1b/5b,4b/8b,3b/7b,{16}2b/6b,,,
{1},,E
