&title=Wings of Silence
&artist=M2U & Pica
&first=-2.2
&des=Turdus
&des_5=Turdus
&lv_5=13+
&inote_5=(60){4},,,,B2/E3,
B6/E7,B4/E5,{12}E1,E8,E7,
{4}1h[12:5]/B5/E5,B8/B7,6h[12:5]/B1/B2,{12}E5,E4,E3,
1-4[12:1],2h[12:1],,8-5[12:1],7h[12:1],,4>1[12:1],3h[12:1],,5/4,6,7,
1/8-3[12:1],2h[12:1],,7-4[12:1],6h[12:1],,1>6[6:1],8h[12:1],,{4}1/C,
{8}8qq5[6:1],{24}1,1,,{4}4h[6:1],{8}4qq1[6:1],{24}5,5,,{4}8h[6:1],
{8}7<4[12:1],{24}8,8,,{12}1>4[12:1],8,8,8-4[12:1],7,7,1h[6:1],{24},,,,7,
5,6,4,{12}5h[12:1],{24}2,4,3,5,{12}4h[12:1],{24}7,5,6,4,5,3,{12}7h[6:1],5,4,
2pp7[6:1],1,1,6,8,8h[6:1],{48}6x,5x,4x,3x,2x,1x,8x,7x,6x,5x,4x,3x,{4}6b/2x,
{24}2q5[6:1],4,{12}3,4,2/6,{6}7h[6:1],{24}6q1[6:1],,,4,{12}5,6/2,{6}3h[6:1],
{24}4q8[12:1],2,{12}5,2,3/4,{24}2,2,6,4,8,5,6,2,4,3,{12}7h[12:1],5h[12:1],4h[12:1],
2-5[12:1],{24}1,8h[24:1],{12}3,2b/8,8,7,6h[12:1],{24}3,4,6,5,{12}4h[12:1],{24}5,6,4,3,
{12}8h[12:1],{24}2,5,3,4,1,7,3,5,{12}4h[4:1],5,6,7,E4/E8,E3/E7,E2/E6,
2/4v7[12:1],{24}3,5h[12:1],{12}1,4b/6,{6}8h[12:1],{12}7/5v2[12:1],{24}6,4h[12:1],{12}8,5b/3,{6}1h[12:1],
{12}2/5h[12:1],{24}2,2,4,3,6b,4,7,3,5,2,{12}7h[6:1]/1qq5[6:1],3h[12:1],,4/1b,3,3,
2/4v7[12:1],{24}5,3h[12:1],{12}1,4b/6,{6}8h[12:1],{12}7/5v2[12:1],{24}4,6h[12:1],{12}8,5b/3,{6}1h[12:1],
{12}2/8-4[12:1],{24}4V61[8:1],5,3,6,{12}2b/8x,3h[12:1],{48},,4,3,{12}2h[6:1]/8w4[12:1],6h[12:1],,{4}8b,
B5/B6/Ch[12:1],E1/B8/E3/B3,{8}5h[4:1],Ch[12:1],{4}B1/B2,
B3/B4/Ch[12:1],E1/B1/E7/B6,{8}4h[4:1],Ch[12:1],{4}B8/B7,
{12}6/Ch[12:1],6h[8:1],,{4}B1/B2,{8}4h[4:1],Ch[12:1],{4}B8/B7,
{12}3/Ch[12:1],3h[8:1],,{4}B8/B7,{12}4/5,{24}3/6,6/3,2/7,7/2,{4}1/Cf,
{12}4-8[12:1],{24}3h[12:1],2,{12}2,4/5,6h[6:1],7,4qq1[6:1],{24}8,8,7,6,{12}4/5h[12:1],,B7/B6,
5-1[12:1],{24}6h[12:1],7,{12}7,5/4,3h[6:1],2,8qq5[6:1],{24}4,4,3,2,{12}8/1h[12:1],,B2/B3,
{24}6,5,4,3,{12}2h[12:1],{24}3,4,5,6,{12}7h[12:1],{24}8,6,1,5,2,4,{12}3h[4:1],4,5,
6p4[6:1],1,2,3/6,2,1,{48}2x,3x,4x,5x,2x,3x,4x,5x,2x,3x,4x,5x,{12}2b,,C,
{24}3-8-5[8:1],4,{12}1h[12:1],,3/6,7h[12:1],{24},,{8}3h[12:1]/6-1-7-5[6:1],{24}4,4,,{12}6/3,2h[12:1],{24},,6-1[12:1],
5,{12}8h[12:1],,6/3,{24}2,2,1,3,8,4,7,5,6,4,{12}5h[6:1],B4/E5,E3/B2,
7-4[12:1],{24}8,1h[24:1],{12}6,7b/1,1,2,3h[12:1],{24}7,6,2,3,{12}5h[12:1],{24}3,2,6,7,
{12}1h[12:1],{24}7,4,6,3,8,1,6,3,{12}5h[4:1],4,3,2,A1/B1/B5/A5,B2/A2/B6/A6,B3/A3/B7/A7,
4/1q7p1[6:1],{24}2,8h[12:1],{12}5,1b/6,{6}4h[12:1],{12}5/8p2q8[6:1],{24}7,1h[12:1],{12}4,8b/3,{6}5h[12:1],
{12}3/8h[12:1],{24}3,3,1,2,{48}7b/1,6,{24}5,3,6,2,8,{12}6h[6:1]/4pp8[6:1],2h[12:1],,1/4b,2,3,
1/4p6q4[6:1],{24}5,3h[12:1],{12}1,4b/7,{6}1h[12:1],{12}8/5q3p5[6:1],{24}4,6h[12:1],{12}8,5b/2,{6}8h[12:1],
{12}3/5-1[12:1],{24}1V74[8:1],6,4,8,{12}3b/5x,2h[12:1],{48},,1,2,{12}3h[6:1]/5-2[12:1],7h[12:1],,5b/6,7,8,
8/1-4[12:1],2h[12:1],,1/8-5[12:1],7h[12:1],,8/4>1[12:1],3h[12:1],,4/5<8[12:1],6h[12:1],,5/1>4[12:1],
2,2,1b/5,{24}6,6b,,7,4/8,8/4,7b/3b,{48}5,3,{24}4,6b/2b,{12}B1/B5/Cf/A5/A1,B2/B6/Cf/A6/A2,B7/B3/Cf/A7/A3,
4/6-1-7-4[6:1],{24}3/5,{48}8,2,{12}1,6b/3,{6}2h[12:1],{12}8/2-5-3-8[6:1],{24}7/1,{48}4,6,{12}5,2b/7,{6}6h[12:1],
{12}3/5q3p5[6:1],{24}4,6,2,4,{12}3b/5x,2h[12:1],{48},,2x,3x,4qq2q7v5[4:1],5,4,5,3,6,4,5,4,5,3,6,{4}4b,
E
