&title=LOVETOXIN
&artist=Nor feat. 棗いつき
&first=0
&des=leolai
&lv_5=13+
&inote_5=(170){1},,
{4}Ch[16:24]/1,,
{4}2,3,4,3,2,,
{4}8h[8:3],4h[8:3],1h[8:3]
,5h[8:1],B1/B5,B3/B4/E4/B7/B8/E8,B2/B3/B7/B6/E3/E7/Cf,
{16},,,,
{16}
3,4,,4,,,3,,2,,,,E2/B2,,E8/B7,,
6,5,,5,,,6,,7,,,,E8/B7,,E2/B2,,
3,4,,4,,,3,,2,,,E2/B2,,,E8/B7,,
7x-5[16:3],,,5-3[16:3],,,3-1[8:1],,1-7[8:1],,,,7b,,,,
6,5,,5h[16:5],,,6,,7,,,,E8/B7,,E2/B2,,
3,4,,4h[16:5],,,3,,2,,,,E2/B2,,E8/B7,,
6,5,,5h[16:5],,,6,,7,,,E8/B7,,,E2/B2,,
2x-8[16:3],,,8-4[16:3],,,4-6[8:1],,6>8[4:1]b,,,,8bx,,,,
{8}
7h[2:3],,E8,,E7,,E6,,E5,,C,,E1,,,,
1,1,6,6,3,3,8,8,1/2x,,8x/3,,4b/7b,,
,,5h[4:6]/B7,,B8,,B1,,B2,,B3,,B4,,B5,,,,
6>3[4:1],,3,,2-8[4:1],,8-3-5-1[8:5],,7,
,6-2[8:1]b,,6/C2f,,,,
1/2,3,4/5,6,4/5,3,4/5,6,4/5,3,4/5,6,7<4[8:1]/8>3[8:1],,7/8,,,
8,1,8-4[8:1],1-5[8:1],8,1,,
7-4[4:1],,4>2[4:1],,2-6[4:1],,6,,
4hx[2:1],,,6,5,,4/5,,6>3[340#4:2],6,3>7[340#4:2],3,7>2[340#4:1]b,,,
{16}B1,B8,B2,B7,B3,B6,B4,B5,E4,E3,E2,E1,E8,E7,E6,E5,E4,E3,Cf,,
{8}
,,,,,,,1x-5[8:1]/2x-6[8:1],,1/2,,7x-3[8:1]/8x-4[8:1],,7/8,,
{16}2/1,,,2/1h[16:5],,,{8}6b,6b,,7,8,
1-6[8:1]/6-2[8:1],,1/6,,2x>5[8:1]/6x<1[8:1],,2/6,,
1xpp1[4:1]/5hx[4:3],,1xqq1[4:1],,,,,
{16}
2x,3x,4xp6[4:1],,,,6>3[4:1],,,,3q1[4:1],,,,1-5-2-4[4:3]b,,,,
{8}
6,,,7,7h[4:1],,,5,6,,5/6,,
{16}
6,,4,5,4,,3,,3/4,,
{8}
,,,4h[4:1]/5,,5h[8:1],4,
7x-4[8:1]/8x-5[8:1],,7/8,,1x-4[8:1]/2x-5[8:1],,1/2,,
{16}7/8,,,7/8h[16:5],,,{8}3b,3b,,
4,8,1-7[8:1]/5-3[8:1],,1/5,,3x-8[8:1]/7x-5[8:1],,3/7,,
5xz1-5[2:1]/8hx[4:3],,5x,,,,,,
{8}
7h[8:3]/8,,,6,5,,3/5,,1/3b,2,2b/8,1,1b/7,,,
1,7,2,6,3,5h[4:1],,4h[4:1],,8-4[8:1],,8/4w8[8:1]b,
{16}
,,4x,Cf,,,,,,,
7,7h[8:1],,6h[16:5],,,7,,8,,,,B7,,C,,
3,3h[8:1],,4h[16:5],,,3,,2,,,,B3,,C,,
7,7h[8:1],,6h[16:5],,,7,,8,,,B2,,,C,,
6-4[16:3],,,4-7[16:3],,,7-3[8:1],,3-8[8:1],,,,8bx,,,,
2,2h[8:1],,3h[16:5],,,2,,1,,,,B2,,C,,
6,6h[8:1],,5h[16:5],,,6,,7,,,,B6,,C,,
2,2h[8:1],,3h[16:5],,,2,,1,,,B5,,,C,,
1-5[16:3],,,5-3[16:3],,,3-7[8:1],,7>3[8:1]b,,,,5bx,,,,
{8}
6x/4x-8[8:1],,6/4,,6/8-3[8:1],6,6/8,,
6/3-7[8:1],,6/3,,6/7-2[8:1],6,6/7,,
6/2-5[8:1],,6/2,,6/5-8[8:1],6,6/5,,
6/8-4[8:1],,6/8,,6/4-1[8:1],6,6/4,,
1x/6x-3[8:1],,1/6,,1/3-8[8:1],1,1/3,,
1/8-5[8:1],,1/8,,1/5-2[8:1],1,1/5,,
1/2-7[8:1],,1/2,,1/7-4[8:1],1,1/7,,
1/4-8[8:1],,1/4,,1-4[8:1]/8-5[8:1],1,1b/8b,,
4hx[4:1],5,6h[4:1],5,4h[4:1],3,2h[4:1],1,8h[4:1],7,6h[8:1],5,
4>1[8:1]/5<8[8:1],,4b/5b,,
1x,1h[8:1],8,8h[8:1],7,7h[8:1],6>3[4:1],6,3p6[4:1]*p6[4:1],,
6>3[4:1],,3p6[4:1]*p6[4:1],,6,,
3h[4:3],,,1,1,,8,,7-3[340#4:1],7,6-2[340#4:1],6,5bh[4:1],,,
{16}
4,5,4,5,3,6,3,6,2,7,2,7,1,8,1,8,1,8,1/Cf,,
{8}
,,,,,,,1x-4[8:1]/2x-6[8:1],,1/2,,7x-3[8:1]/8x-5[8:1],,7/8,,
{16}5/4h[16:3],,,3h[16:5],{8},2b,2b,,
2,1,3-7[8:1]/8-4[8:1],,3/8,,7x>1[8:1]/4x<6[8:1],,4/7,,
6xpp6[4:1]/1hx[4:3],,6xqq6[4:1]*qq6[4:1],,,,,
{16}
7x,8x,1x<6[4:1],,,,
{8}
6>3[4:1],,3>8[4:1],,8pp4-1[4:3]b,,7,,,6,6h[4:1],,,8,7,,1/8,,
{16}
2,,8,1,8,,7,,5/6,,
{8}
,,,3h[4:1]/4,,5,6,
7x-2[8:1]/8x-3[8:1],,7/8,,1x-6[8:1]/2x-7[8:1],,1/2,,
{16}4/5h[16:3],,,6h[16:5],,,7b,,7b,,,,
{8}6,3,7-5[8:1]/4-8[8:1],,7/4,,5x<7[8:1]/8x>2[8:1],,5/8,,
2xqq5>3[2:1]*qq5>3[2:1]/7hx[4:3],,2x,,,,,,
1/2h[4:3],,,3,4,,5,,
4/5b,4,4/6b,4,4/7b,,,
1/2,1/2,3/4,3/4,5/6,5/6,7/8,7/8-3[8:1]*-5[8:1],,8,,
5xp1[8:1]/3xq8[8:1],
{16}
,,5/3,B1/B8/Cf,,,,,,,1x>8[4:13]/E8/B7/B8,,,,
{8}
,,,,,,B5/B6/E6,,,,,,,,B3/B4/E4,,,,,,,,B1/B2/E2,,,,,,,,
8x<1[4:13]/B1/B8/E1,,
,,,,,,B2/B3/E3,,,,,,,,B4/B5/E5,,,,,,,,B6/B7/E7,,,,,,,,
4/5h[4:6],,,6,6,,7,,8,1,2,3,4,,,,
B2,,B7,B6,B2,,B7,,B2,B3,B7,,B2,,,,
5/4h[4:6],,,3,3,,2,,1,8,7,6,5,,,,
5,5,4,4,3,3,2,2,
{32}
1w5[4:1],2,3,4,5,6,7,8,1,,,,,,,,
{8}
,,,,8bx-4[8:1]/2bx-6[8:1],,2/8,,7bx-3[8:1]/1bx-5[8:1],,7/1,,
{16}1x/8x,,,1h[16:1]/8h[16:1],,,{8}2b/7b,3b/6b,,
2/6,3/7,4>8[8:1]/8<4[8:1],,4/8,,4xq8[8:1]/8xq4[8:1],,4/8,,
4xqq4[4:1]b/8hx[4:3],,4xpp4[4:1]*pp4[4:1],,,,,
{16}
4x,3x,2xp6[4:1],,,,6q4[4:1],,,,4>8[4:1],,,,8<7-1-5-2-4[4:3]b,,,,
{8}
7,,,6,6h[4:1],,,
5/7,4/6,,2/5,,
{16}
3,,3,4,3,,3,,3b/4b,,,,
{8}
,,4h[8:1],,3/5,2/6,
7bx-3[8:1]b/1bx-5[8:1],,7/1b,,
8bx-4[8:1]/2bx-6[8:1]b,,2/8b,,
{16}4x/5x,,,3h[16:1]/6h[16:1],,,{8}2b/7b,1b/8b,,
1/5,2/6,7p3[8:1]/3p7[8:1],,3/7,,3x<7[8:1]/7x>3[8:1],,3/7,,
7xpp1s5-8[2:1]b/3hx[4:3],,7x,,,,,,
7h[4:3]/6,,,5,4,,3,,
2,6,1,5,4/8,,,,
4b/6,4/6,3/5b,3/5,2b/7b,,1-5[8:1]/8-4[8:1]b,,1b>4[8:1]b/8<5[8:1],,1w5[8:1]b/8bw4[8:1]b,,1b/8b,,
B2/B3/B4/B5/B6/B7/Cf/E5,,
{16}7,,,7h[16:3],,,{8}B7,C,,B3/A3,B3/A3,
{16}6,,,6h[16:3],,,{8}B6,C,,B2/A2,B2/A2,
{16}5,,,5h[16:3],,,{8}B5,C,{16},B1/A1,,,B1/A1,,
{16}E8,,,B7,,,B6,,E6,,,,,,,,
{8}
{16}2,,,2h[16:3],,,{8}B2,C,,B6/A6,B6/A6,
{16}3,,,3h[16:3],,,{8}B3,C,,B7/A7,B7/A7,
{16}4,,,4h[16:3],,,{8}B4,C,{16},B8/A8,,,B8/A8,,
{16}E8/E2,,,B7/B2,,,B6/B3,,E6/E4/B5/B4,
E
