&title=一千光年
&artist=いよわ
&first=0
&des=xiaon269
&des_5=xiaon269
&lv_5=13+
&lv_6=13+
&inote_5=(96){4},{8},,,,,,B6/B5/B4/B3,
,,4h[8:9],,,,,,,,5h[1:1],
,4,4,6,
7,8,1,2h[8:7],1<6[8:1],5,{4}1-5[8:1],
1,4h[8:7],{8}5,5,5,7,
8,1,2/4<7[8:1],7>2[8:1],2>4[8:1],4<2[4:1],,,,,{4}4h[1:1],
{16}5,{32}5x,6x,{8}7x,8,2,
1,8,7h[8:7],1,8,5,2,5,
4,4h[16:5],{16},2,2,2h[4:1],,5,5,5h[4:1],,7,7,7bh[4:1],
,2,2,2bh[8:1],,,7,8h[8:1],,,1,8x-2v5[2:1],,,,,,,,,,,,,6,
4,6,3,{8}6,{16}4,4,
{32}4,3,{16}2,5,6,{4}5,{16}7/2,1/8,1/8,2/7,{4}4h[8:1]/5h[8:1],
{2}4-1<8[8:1]/5-8>1[8:1],{16}2h[16:1],7h[16:1],1xh[16:1],8h[16:1],{8}1h[8:1],{16}2h[16:1],3h[16:1],
4h[16:1],5h[16:1],6h[16:1],7h[16:1],,,{8}3-6[8:1],6-1[8:1],1-4[8:1],4-7[8:1],7pp2[4:1]*>3[4:1],
{32},,,,,,,,,,,,,,,,,,,3x,4x,3x,5x,6x,{8}5x,{32}8x,7x,6x,5x,
{8}3x,{32}4x,5x,,,5x,4bx,,,,,,,{16}5b,4b,3b,2b,{8}1b,{16}1b/8b,8b,
7b,6b,5b,4b,{8}5b,4b,{16},B8,B7,B6,B5,B4,B3,B2,
{8}B8/B7/E8,B1/E2/B2,{4}B7/B6/C/B2/B3,{2}Cfh[8:7],
{16},,,5-1b[16:1],,,,5bx,{32},,,,4x,2x,{16}3x,5,6,7,8/7,
1pp2[8:1]*qq8[8:1],2,{8}8,{4}1x,{16}8h[8:1],1,1h[8:1],8,,2,3,4>1[8:1],
5<8[8:1],3,6,4,{4}5b,{32}8x,7x,8x,6x/5x,,4,,3,,2,,1,,,{16}7-4[8:1],
8-3[8:1],6,1,7,{4}8,{16}4,5,4,5,4,3,6,2,
(192){8}7,{16}1x,8,1,8,1,8,1,8,{8}1,{4}1x>3[8:1]/8x<6[8:1],
{32}A8f/A1f,D8/D2,A7/A2,D7/D3,,,,,,,,,{8}3x-5[8:1],6h[8:1],3,7,7/3,
{4}8x<4[16:3],{16}8/4x,3x,2x,1x,,,,,{4}1h[8:1]/4h[8:1],
8h[2:1]/5h[8:1],7-4[8:1],7,{8}8,8-6-2[4:1],
1,3-5[8:1],,3,,,3,2/4,
{16}4x,3x,2x-6[8:1],1x,8x,7x,6x,5x,{4}4x,{8}5,4,
{4}4b/5b,4-8[4:1],{2}5<6-4v7>8v3-1>2b[2:3],
{8},,,,,,,,,,,,C,
5,6,7h[8:1]/8h[8:1],
,8/7,1,1-3<4[4:1],{2}1-7<6[4:1],
{8},,4/6,3,3-5[8:1],2-6[8:1],3,2,
{16},,8,7,{4}8-4[8:1],8>3[8:1]*<5[8:1],8b,
{8}4,5q1[4:1]*p1[4:1],6/4,5,{16},,,,,,2-5[8:1],8,
{8}2,2,7,6,{16},,5xh[16:1],6h[16:1],5h[16:1],6h[4:1],,,,,{8}4,
6,6/3,,5/4,5/4,7/2,
,5/4,6/3,4bxpp4[8:7]*qq4[8:7],,,,,,,,,,,,5/4,
{32}5/4,,,6/3,,,,,{8}7/2,{32}8b,7x,6x,5x,,,,,,,,,,,,,1b,2x,3x,4x,
,,,,,,,,,,,,1b/8b,2x/7x,3x/6x,4x/5x,,,,,,,,,,,,,{16}6x,3,
6,3,6,3,6,7x,2,7,2,7,2,7,{8}2,1xh[#1.25]/8bxh[#1.25],
,,(96){4},,1>8[4:3],
,,8<1[16:15],C,
,,,8-5[4:1],
{8},1-4[4:1],,,,8p3<8[4:3],,,,B1/E2/B2,
,,,,1b>5b[8:5],7,
7,7,{4}6h[8:1],7h[8:1],{8}8b<4b[8:5],2,
2,2,{4}3h[8:1],2h[8:1],{8}4-2[8:1],5,
{4}4x/E6,{8}5-7[8:1],4,{4}5x/E4,3>8q4[8:5]/6<1p5[8:5],
,,,6h[4:7],
{8},3h[8:11],,,,,,,,,,,,6/3>8[8:1],
5,3/6<1[8:1],
4,{16}6,5,{8}5>2[8:1],{16}1,1,{8}5,8,8/2v4[8:1],7,
2,7-4[16:1],6/3-8[16:1],7,3,3/6<1[8:1],4,6/3>8[8:1],
5,{16}3,4,{8}4<7[8:1],{16}8,8,{8}4,2,1/7v5[8:1],2,
7,2-5[16:1],3/6-1[16:1],2,6,{16}7v1[8:1],4,{8}4,2,
4,4v2[8:1],8,4/6,{16},,,4/3h[16:1],,4/5h[16:1],{8}4,
{16}6/5,6/5,{8}7/8,1/8h[8:1],1,5<8[8:1],8>3[8:1],{4}3V17[8:1],
{8},3,{16}4,5,{8}7b/3b,,(192)6-2b[8:1],7,6,
,3-7b[8:1],2,3,,8V24[2:1]*V64[2:1],,8,
,,,,,,,4/5,
{32},,,8b,7x,6x,5x,4x,3x,2x,1x,8x,7x,6x,5x,4x,{8}3x/Cf,,,4x/5x,
6x-8[8:1],3h[8:1],6,2,1,1x>5[16:3],{16},,1/5x,6,
7,8,,,,,{8}8h[8:1]/5h[8:1],,1h[2:1]/4h[8:1],,4<7[8:1],
,4>1b[8:1],,4,,8,6/1,5h[4:1],
,1h[4:1],,,5,{16}5x,6,7x-3[8:1],8,1,2,
3,4,{8}5,,2h[8:3],6,5,,5/3,
3/5,5bw1b[2:3],,5b,,,,,,,,,,,,,,,4/5-7[8:1],
3,{16}2,,,1,8,1,{8}8,
{16},5,7,6,,4,2,3,,,{8}5/4,{4}3bh[8:1]/6bh[8:1],
{8},6-4[8:1],7-3[8:1],6,{16}7,C,,,,,1-5[8:1],8,
{8}2,1<6[8:1]*>4[8:1],,1b,,5,4w8[4:1],3/5,
4,C/B6/B2,,,{4}8b/7-4[8:1],{16}7b,1,{8}1,
{4}2,{16}4bh,3h,4h,3h[16:3],{32}B5,B6,{16}B7,,,,,{8}2/7,
{4}1b/8b,{8}5/4,4/5,{32}2x/7x,D7/D3,A6/A3,D6/D4,,,,,{8}5x/4x,4/5,
{1}5bxqq5[8:7]*pp5[8:7],
{24},,,,,,,,,,,,5b/4b,3/6,7/2,1/8,,,,,,,,,8b/1b,
7/2,3/6,5/4,{48},,,,{16}5x,4,5,4,5,4,3,2,{4}1-5[8:1],
1b,{16}6,7,{8}8,{4}3b,{16}7,6,5,4,
3b,2,1,8,{4}7,{16}6b/8b-4[8:1],1,2,3,{4}8x/4x,
E
&inote_6=(96){4},{8},,,,,,,,,5bh[8:313],
{4},,,{16},,{24}4x,
3x,2x,{2}1x<6q4[2:1],
{8},,,3,8,1,2,3,
{2}4-1[8:1],{4}8>3[8:1],8,
4>1[8:1],4,{2}2>8[2:1],
{32},,,,,,,,,,,,,,,,,,1x,8x,{8}7x,6,6,
7-1[16:1],6,{4}7,{8}8<4p3[2:1],1,{4}8,
{16},,,,,,,2h[8:1],,,3,4xh[8:1],,,,6h[8:1],
,,7,8,,1,8,8,,7b-2v4[16:7],{8}7h[16:1],{16},,,,,,,,,,,,4,
4,3,3,{8}2,3<7[4:1],
{2}3,8-5>4-1<8[8:3],
{4},1h[8:1],{8}2h[16:1],3h[16:1],{4}4xh[8:1],
{8}6,7,6,8,{4}8-6[16:1],{8}8<3[8:3],7,
{16},,,,,,,,,4x,{8}4xh,{16}6x,7xh,{8}4x,
{24}3x,2x,1x,8x,,,{8}1x,2x,{16},3b,3b,2b,{8}1b,{16}1b,1b,
1b,1b,2b,3b,{4}2b,{8}E4,B3,B8,B1,
E3/B2,B3/E4,{4}C,{2}Ch[4:3],
{32},,,,,,,,,,,,,,8,1,{8}2,{16}3-8[16:1],4,{8}4,3<7[4:1],
{16}1,2,{8}3x,,,8,8,{16}7p6>2[8:3],7,{8}7,
,,,,{4}4h[8:1],{16}3,2,1,8,
7V13[8:1],7,,,,,,,{8}3,2<7[8:1],{4}7q3[8:1],
{48},,,,,,,,,,,,B3,B4,B5,B6,B7,B8,B1,B2,,,,,{8}1-6[16:1],2,1>7[4:1],8,
A1f,,,1,8-6[16:1],8-2[16:1],{4}8x<3[4:1],
{8}A8f,,,4,{32}4,3,2,1,8,7,6,4,{8}3,{16}2,2,
{8}1>6-4-7-3-8b[4:3],1b,{4}A1f,{16},,,,,,,,,,,,,6,
6,7,{32},,1,8,7,6,,,{8}7b<2[4:1],{16}8,8,
{8}7,{16},,,,4,3h[16:1],{48},,,,,,{24}2,2,,1,1,,{8}8-3[16:1],
{16}8-4[16:1],8,{32},,,,,,,,,,1,2,3,4,,,,,2,1,8,7,,,,,8,1,
2,3,,,,,2,1,8,7,,,,,{16}1bpp1qq1[2:1],,1,1,A1f,,,,,,,,,,,,6,
6,7,{32},,1xh,8,7,6,,,,,8xh,1,
2,3,{16}4,{32},,1xh,8,7,6,,,,,4xh,3,2,1,8,7,{16}6,{32}8xh,7,{8}6,{16}3,3h[8:3],
,,,,,,3p6<1[8:5],4b,,,{8}3x,,,,,,2>4pp8[8:5],
,2x,,,,,,2-4[16:1],
,A2f,{4}1-7[16:1],
A1f,2>1[8:7],{2}A2f,
{8},,,,,1,1,1,
8,7,7,6xh,,4,4,4,
3,3,2,1-6[16:1],,,{4}7xv2[16:1],
,3s7-1-6-2b[4:3],,,,,{2}4bh[16:319],
{8},,,,,,,,,,,,5,
6,7,8<6[16:1],
{2}8-5[16:1],{8}5-1[16:1],5-7[16:1],,,{2}6>2[8:1],
{8}3,2,1,8>2[16:1],
{2}8-3[16:1],{8}3-7[16:1],3-1[16:1],,,{2}2>6[8:1],
{8}8,{16}8,7,,7,{8}6,
{16}6-1[16:1],5,,,,,,,{8}8,{16}7,7,{8}6,5>1[4:1],
,,,,8,{16}8,1,,1,{8}2,
{16}2v7[16:1],3,,,,,,,8,8,{8}8,{16}1,1,8,8,
{32}7xh,8,1,2,{8}3,,,{4}C,{32}2x,1,8,7,6,5,3,2,
{8}1-6[16:1],6-2[16:1],{16},,,,1-7[16:1],1-6[16:1],{8}1-5[16:1],,,6,
{16}7,8,{8}7<2[4:1],6,7x,{32},,,,,,,,8xh,1,2,3,
8xh,7,6,5,,,{16}1b,,,{8}1-5[16:1],1q3<6q8b[1:1],A1f,{1},{16},,,{32}8,
7,
{16}6,{32}7xh,6,{8}5,3>1[16:1],{16}3<6[8:1],3,{48},,,,,,,,,,,,,,,,{24}6,5,,5,
,,1,1,,8,{12}8,{24}7,6pp1[4:1],{48},,,,{16}5,5,{32},,,,,,,,,,8h,7,
6,5,,,,,1h,2,{16}3,{32},,,,8h,1,2,3,,,,,1h,2,{16}3,,,8pp8qq8[2:1],
,8,8,A8f,{4},,{16},,,{48}6x,7x,8x,
1x,2x,{24}3x,{48},,,,,3x,2x,1x,8x,7x,{24}6x,{48},,,,,{16}7,6,5h,3x,{32}8b<5[16:1],1,{16}2,3h,8,8b>3[16:1],
,6,5h,8b,,2,{32}8h[16:1],,,5bxh/1bx-5b[32:53],2xh/6xh,7bxh/3bxh,8xh/4xh,1bxh/5bxh,{8}Cf,
E
