&title=Checkmate
&artist=ned x PahNic
&first=0.624
&des=无敌韩系大王
&lv_5=14
&inote_5=(123)
{4},,,{24},,,,,{48}2,3,
{4}4^6[24:4],{24},,,,,{48}1,2,{4}3<7[24:8],{24},,,,,{48}8pp5[24:34],1,
{1}2>8[24:16],,
{24}4,,,6b-4[12:1],,,3,,3,6,,,2,,,31,,,4^1[32:3],,3,5,,,
{24},,,7,,8,6,,4,5,,3,4,,2^5[32:3],1^6[32:3],,3,8,,,,,,
{24},,,3,,3,4,,,6,,6,5,,7-1[12:1],4-2[12:1],,6,5,,,,,,
{24}8h[24:3],,,1,,7,3h[24:3],,,4,,2,6,,5,7,,4,6,5,6,3,4,3,
{24}5,,,4b-1[32:3],,,6,,6,4,,,7,,,86,,,5^8[32:3],,3,4,,,
{24},,2h[24:3],,,1,3,,3,5,,5,4,,4b,6,,5,8,,1b,7,,2,
{24}4,,3,6b,,5,7,,,3,,4,2,,5-2[32:3],3-6[32:3],,6,2,,,,,,
{24}8b,,,7b/1b,,,3b/5b,,,6,,4,7,,3,8,,2,7,6,5,1,2,3,
{8}6h[24:3]/4h[24:3],,7h[24:3]/5h[24:3],,4h[24:3]/6h[24:3],,7pp3[24:9]/5h[24:3],,
{8}3,,2,1-4[24:4],,4,5,6,
{8}7h[24:3]/5,,5/3h[24:3],,8h[24:3]/6,,2h[24:3]/4,,
{24}46,,,7,,7,5,,5,6,,6,4w8[24:3],,,53,,,,,,,,,
{8}2h[24:3]/8,3,1/7h[24:3],6,8-6[12:1],1,2pp6[24:9],3,
{8}5,,6,7-4[24:4],,8,1,2,
{24}53,,,6,,6,5,,,47,,,35,,,2-5[24:3],,2,1,,,2qq1[24:4]/8,,,
{24},,,2z6[24:5]/3,,,,,,,,,1,,1,,47,36,25,,,71,,,
{24}4b/6b,,,3,,3,5^8[32:3],,2,4,,,5/3^8[32:3],,,4,,,3b/7b-3[32:3],,,6b,,,
{24}1b/7b,,,2,,2,4,,3,5p1[32:3],,4,6,,,7b/5b,,,6b,,8^3[32:4],4^7[32:3],,,
{24},,,4b/8bqq1[24:6],,,,,,5,,,4,,,2,,1,3,,7,8v3[32:3],,6,
{24}1,,,2bp6[32:3],,,1,,,4bv7[32:3],,,5,,,3b,,,2,3,4,8,7,6,
{24}3b/5b,,,6,,6,4^1[32:3],,7,5,,,4/6^1[32:3],,,5,,,2b-6[32:3]/6b,,,3b,,,
{24}8b/2b,,,7,,7,5,,6,4q8[32:3],,5,3,,,2b/4b,,,3b,,1,5,,,
{24}7^4[24:2],,,,,78,,,,2^7[24:2],,,,,32,,,,5<4[24:18],,,,,45,
{8},,,,,,,5,
{24}4b/6b,,,2,,2,1^4[32:3],,3,8,,,16,,,7,,7,5-1[32:3],,8,4,,,
{24}75,,,6,,6,2-4[12:1],,,5-7[12:1]/3,,,2b-8[16:1]/6b,,,5bp4[24:5],,2b,,,,,,,
{24},,,2,,2,4,,4,5,,5,7-5[12:1],,1-5[32:3],8,,2,7-3[32:3],,1,,,,
{24}7b,,,2-5[32:3],,5,4,,,2b/7b,,,7,6,5,1,2,3,4b/6b,,,2b/8b,,,
{24}3b/5b,,,7,,7,8^5[32:3],,6,1,,,83,,,2,,2,4-8[32:3],,1,5,,,
{24}24,,,3,,3,7-5[12:1],,,5/4-1[32:3],,,7b-3[12:1]/2b,,,4bqq5[24:6],,7b,,,,,,,
{24},,,7,,7,5,,5,4,,4,2,,1,3,,7,8,,6,2,,4,
{24}3b,,6,5,,8,1b,,7,3,4,3,6,5,6,3,4,2,6,5,7pp4[24:10],8bV25[24:9],,,
{4},,{8},{48}36,27,,,,,{24}1h[48:1],8h[48:1],2h[48:1],7h[48:1],3h[48:1],6h[48:1],
{4}4b/5b,
{32}2,6h[32:1],4h[32:1],6h[32:1],4h[32:1],6h[32:1],4h[32:1],,
7,3h[32:1],5h[32:1],3h[32:1],5h[32:1],3h[32:1],5h[32:1],,
{16}2,4,1,5V73[32:7],
{2}8z4[32:5],
{16}2h[32:1],1h[32:1],3h[32:1],8h[32:1],4h[32:1],7h[32:1],5h[32:1],6h[32:1],
{8}4-1[32:3],,54,{32},,7,2^4[32:3],{16}7^5[32:2],,1,8,72,,,{32}5,4,
{16}6-1[32:3],,37,,46,4,{32},,2,8z4[32:6],{2}2s6[32:5],
{8}3b/5b,17,
{32}6,2h[32:1],8h[32:1],2h[32:1],8h[32:1],2h[32:1],8h[32:1],,
3,7h[32:1],1h[32:1],7h[32:1],1h[32:1],7h[32:1],1h[32:1],,
{16}6,2,7,3,
{16}84,,56,,17,,24,,4pp6[8:1]/5qq3[8:1],45,45,45,,,,,
{16}3,3,3,{32}5,6,7,8,{16}2,2,{32}4,5,6,7,8,1,2,3,4,5,1,6,1,6,1,6,1,6pp5[32:13],
{16}1bpp4[32:12],,,,,,,,,,,,,,,36,
{8},4,5,3,6,4,5,{64},,,,,,,4,
{16}5,,,6,,4,,5,,,{24}3>5[24:21],4,5<3[24:19],,,,,,,
{8},,,,,,,4,
{24}3b/5b,,,7,,7,1<5[32:4],,8,2,,,13,,,2,,2,4q8[32:3],,8,6,,,
{24}24,,,3,,3,7^5[12:1],,,6/4^2[12:1],,,7b^1[16:1]/3b,,,4bq5[24:5],,7b,,,,,,,
{24},,,7,,7,5,,5,4,,4,2-4[12:1],,8-4[32:3],1,,7,2-6[32:3],,8,,,,
{24}2b,,,7-4[32:3],,4,5,,,7b/2b,,,2,3,4,8,7,6,5b/3b,,,7b/1b,,,
{24}6b/4b,,,2,,2,8>4[32:4],,1,7,,,86,,,7,,7,5p1[32:3],,1,3,,,
{24}75,,,6,,6,2^4[12:1],,,4/5^8[32:3],,,2bp6[12:1]/7b,,,5bpp4[24:6],,2b,,,,,,,
{24},,,2,,2,4,,4,5,,5,7,,8,6,,2,1,,3,7,,5,
{4}6p3[8:4],,,1h[4:1],
(184.5)
{8}4b^7[16:6],,2,,3,,4^1[16:6],,1,,8,,
{8}7-2[16:5],,2,,{1}4pp7[16:10]*qq1[16:10],
{8}2^5[16:6],,8,,7,,6^1[16:6],,
{8}5,,4,,3s7[16:8],,1,,
{1}7>3[16:8]*<3[16:8],
{8}5b,,4,6,5qq4[16:6],,7V58[16:6],,
{8},,,,2b,,1,3,
{8}8v3[16:4],,2q5[16:9],,,,4b,,
{8}6bV82[16:6],,5,,4,,3V57[16:6],,
{8}2,,1,,8bV24[16:6],,7,,
{8}6,,{16}5-1[16:32],4,5,4,5,4,5,4,5,4,5,4,
{16}6,3,6,3,6,3,6,3,6,3,6,3,6,3,6,3,
{16}6,3,6,3,5,,,,
(246)
{8}2b-6[8:1],,82,,7-4[8:1],7,1-5[8:1],1,
{8}8-4[8:1],8,2-5[8:1],2,6,6,{16}1,,71,62,
{8}5/3-7[8:1],,37,,8-4[8:1],8,2-5[8:1],2,
{8}7-4[8:1],7,1-5[8:1],1,6,6,2,{16}28,37,
{16}46,,,,17,,4,5,3,,,,82,,6,5,
{16}7,,7,,7,,4,3,2,1,6,,6,,3,2,
{16}1,8,7,6,5,4,7,6,5,4,3,2,15,84,73,62,
(61.5)
{16}1b/5bpp4[16:3],,,
(246)
{4}3bqq4[4:3]/5?pp4[4:3],
(123)
{4},{16},,,{64},,3b/5b,2b/6b,{2}1b<3[1:1]/7b,
