&title=DEAREST DROP
&artist=田所あずさ
&first=0
&des=Azuki
&lv_4=10
&lv_5=12
&inote_4=(146)
{1},
{4},,
{8}2h[8:4],,,,4h[8:4],,,,
{8}3h[8:4],,,,6h[8:4],,,,
{8}5h[8:4],,,,7h[8:8],,,,
{8}1h[8:4],,,,,,,,
{8}1b/7b,,,2/8h[8:5],,,2,,2h[8:8],
{8},,4,,,4,,4h[8:6],,
{8},3,,,3,,4/3,,
{8},4-1[8:1]/5-8[8:1],,,,,7h[4:1]/8,,
{8}5,,2h[4:1]/1,,4,,6h[4:1]/5,,
{8}4,,3h[4:1]/4,,5,,4h[8:8]/5h[8:4],,
{8},,,,,,5pp2[8:4],,
{8},,,,,,3h[8:8],,
{8},,8,,7,,6h[8:6],,
{8},,4,,3,,2/5,,
{8}3,,7/4,,6,,4V61[8:4]/5V38[8:4],,
{8},,,,,,6h[8:8],,
{8},,1,,2,,3h[8:6],,
{8},,5,,6,,7-3[4:1],,
{8},,4^1[4:1],,,,6b,,
{8},,,,,,4h[8:8]/3,,
{8},,3,,3,,2,,
{8},,5h[8:4]/6,,6,,7^2[4:1],,,,
{8}3^6[4:1],,,,8h[8:4],,,,
{8}1b,,,,6,,5/7,,
{8}3,,4/2,,6,,3/7,,
{8}2,,1/5,,8p3[8:2],,,,
{8}2p5[8:2],,,,4w8[8:4],,,,
{8},,,,6h[8:6],,,,
{8}3,,2-6[4:1],,,,7,,
{8}7,,8,,1h[8:6],,,,
{8}5,,6q3[8:2],,,,4,,
{8}4^1[4:1],,5,,6,,6h[8:4],,
{8}1,,1h[8:4],,7,,7h[8:6],,
{8}2h[8:4],,,,,,1/8,,
{8}1/8,,3/6,,1b/6b,,,,
{8}3b/8b,,,,2bqq5[8:4]/5b,,,,
{8},,,,7h[8:2]/1b,,2,,
{8}3h[8:2]/6,,5,,6h[8:2]/3,,4,,
{8}2h[8:2]/8,,7,,6pp5[8:4]/4qq5[8:4],,,,
{8},,,,3-6[8:2]/7-2[8:2],,,,
{8},,8-4[8:2],,,,,,
{8}1,,1,,7,,7h[8:4],,
{8}3h[8:2],,,,2b>6[8:2]/6b,,,7,
{8},,1,,7<3[8:2],,,2,
{8},,8,,7h[8:8]/8h[8:2],,,,
{8}1h[8:2],,,,2h[8:4],,,,
{8}4,,3/5,,4/6,,7/5,7-2[8:1]/5-2[8:1],
{8},,,,2b,,,,
{8}7b/4b,,,,3bq8[8:2]/5bp8[8:2],,,,
{8},,1,,2/6,,7,,
{8}4/8,,4/8,,4h[8:2]/8h[8:4],,,,
{8}2^5[8:1],,6^1[8:1],,3s7[8:3],,,,
{8}5,,5<5[8:4],,,,,,
&inote_5=(146)
{1},
{4},,
{8}2h[8:4],,,,4h[8:4],,,,
{8}5h[8:4],,,,8h[8:8],,,,
{8}2h[8:8],,,,,,,,
{8}1>6[8:1],,1,,8,{16},7,,,3/7,,
{16}3/7h[16:2],,5,7,4,,3h[16:4]/7,,,,5,3,6,,3,,5/1h[16:2],,
{16}3,1,4,,1h[16:3]/5,,,,5,4,6,,8,,
{16}4/8h[16:2],,6,8,5,,8h[16:3]/4,,,,4,5,3,,4,,
{16}6/2h[16:2],,4,2,5,,6h[16:6]/2,,,,7,,7,,,,
{8}7-4[8:1]/8-3[8:1],,7/8,,2-5[8:1]/1-6[8:1],,2/1,,
{8}7h[8:2],,4V61[8:3],,3,{16},3,,,2>6[8:3],,
{8}2h[8:6],,,,,,,,
{16}7b,,,6/1b,,,3b,,8b/4h[16:6],,,,,,8,4,
{8}8qq4[8:4],,,1,,1,2,3,
{8}4qq8[8:4],,,5,,5,6,7,
{16}8^3[8:1],,,7,,,6,,5^8[8:1],,,4,,,3,,2h[8:6],
{16},,1,,,3,,4h[8:4],,,,,,,,1^4[8:1],
{16},,8,,,8,,7^2[8:1],,,4,,,4,,3h[16:3],,,4h[16:3],,
{16},5,,5q1[8:1],,,,3,,,,2-5[8:1],,,1,,,8,
{16},7-4[8:1],,,8,,,1,,2b>2[8:4],,,,,,,,
{16},,,,,,5,5,4,,3/5,,1,,6/4,,
{16}8,,1/5,,6,,7/3,,2-5[8:1],,2
,,6-1[8:1],,6,,
{16}2>5[8:1],,2,,8,,7,,6,,6,5h[16:3],,7,7h[16:2],,
3,,3,4h[16:3],,2,2h[16:2],,
{16}7h[16:3],,,1h[16:3],,,8-5[8:1],,8>4[8:1],,,,,,6,,
{16}7h[16:3],,5,5,,,3,,2h[16:3],,4,4,,,5,,
{16}6h[16:6],,8,8,,,4,,4h[16:6],,2,2,,,,,
{16}5h[16:3],,,6h[16:3],,,7h[16:2],,2h[16:3],,,3h[16:3],,,4h[16:2],,
{16}8h[8:1],,1s5[8:3],1,,,,,,,7b,,6b,,,,
{16}7,,,8-4[8:1],,,2-5[8:1],,2,,,,7,,,
{16}6-2[8:1],,,4,,4<2[16:6],,,,3,,3,,4,,4,
{16},5h[16:3],,,6h[16:5],
,,7^2[8:1],,
7,,,,4h[16:3],,,3h[16:5],
{16},,2^7[8:1],,2,,,,4,,5,,6,,7,,
{8}1h[8:2],3,8h[8:2],6,2h[8:2],4,7h[8:1],5,
{8}1/8,2,1/8,7,8/2,3,7/1,6,
{8}2<4[16:6]/8,,4,,3,2,1,,
{16}7b/4,,,2b/5,,,3/8b,,1b/6,,,2b/7b,,,3b/6b,,
{8}1b/8b<8[8:4]*>8[8:4],,,,,,,,
{8}7v4[8:1],,7/3^8[8:1],,3/6v1[8:1],,6<4[16:6],,
{16}6/2h[8:4],,,,,,,,5,,3/6,,4/7,,5/8,,
{8}1<5[4:1],,5>1[4:1],,1<5[4:1],,,,
{16}3-6[8:1],,,,7-2[8:1]/3,,,,4-8[8:1]/7,,,3,,,2,,
{8}1h[8:2],,8,,{16}7h[16:3],,,5h[16:3],,,3h[16:2],,
{16}2h[16:3],,,8h[16:3],,,6,,6q3[4:1],,,,5,,,,
{8}8-4[8:1],,1/8,2q4[8:3],,2,1,8,7p5[8:3],
{8},7,4,,3,2-6[8:1],1,2/7-3[8:1],,
{8}7/4-8[8:1],,4/5-1[8:1],,5/2>8[16:5],,2h[8:5],,
{8},,1,4h[8:2],1,3h[8:1],8,,
{16}6/8,,8/6>3[16:3],,,,,,2h[16:12],,,,1b,,,4b,
{16},,7b,,6h[16:8],,,5b,,,8b,,3b>6[16:4],,,,
{8},,,8h[16:6],5,4,3,,
{8}6<2[8:1]/2>6[8:1],,2p6[8:1]/6p2[8:1],,,,1b/5b,,
{16},,,,8-4[8:1],,,1,8,,2,,3,,,5b/2,
{16},,7/4b,,3/8b,,,1b/6,,,4,,4bw8[8:2],,,,
{16},,,,,
