&title=[FULL VER.]自己肯定感爆上げしゅきしゅきソング
&artist=藤田ことね (CV. 飯田ヒカル)「学園アイドルマスター」
&first=0
&des=しゅきしゅき大しゅき
&lv_6=15
&inote_6=(190)
{1},
{32}8b/7b,1b/6b,2b/5b,3b/4b,,,,,1b/8b,2b/7b,3b/6b,4b/5b,,,,,2b/1b,3b/8b,4b/7b,5b/6b,,,,,3b/4b,2b/5b,1b/6b,8b/7b,,,,,
{1},
{8}1-3[8:1]/6,,4,4-6[8:1],,2,2,3,
{8}7-1[8:1]/4,,5,5h[8:1],{16}8,4,8,4,7-4[8:1],,,,
{8}7-1[8:1]/2,,3,3V51[4:1],,8,7,6,
{8}2/5,4,3,1,{16}4,8,4,8,4,7,3,6,
{16}2b-5[8:1],,3,4,2,,6,,7,8,6-1[8:1],1,5,2,6,,
{16}3-8[8:1],,2,1,3,,7,,6,5,7-4[8:1],4,8,3,7,,
{16}2,,3,4,3,,2/5,,7,1,6,5,7,4,6,3,
{16}5,2,4,3,4,3,5,2,6,1,7,8,7,,,,
{8}1b-5b[4:5]/2b,7-3b[8:9]/6b,,,,,,,
{1},
{4}3/4h[1:1],3,5,5,
{4}2-8[8:1],6-8[8:1],4w8[8:1],,
{8}1b/2b,{32}1b/2b,3/8,4/7,5/6,,,,,{8}1b/2b,{32}1b/2b,3/8,4/7,5/6,,,,,{4},
{8}8b/7b,{32}8b/7b,6,5,4,{8}2b,{32}1b/2b,3,4,5,{4}8b-3b[8:1]*-5b[8:1],8b,
{8}1b/2b,{32}1b/2b,3/8,4/7,5/6,,,,,{8}1b/2b,{32}1b/2b,3/8,4/7,5/6,,,,,{4},
{8}8b/7b,{32}8b/7b,6,5,4,{8}2b,{32}1b/2b,3,4,5,{4}8bv3b[8:1]*v5b[8:1],8b,
{8}1b/2b,{32}1b/2b,3/8,4/7,5/6,,,,,{8}1b/2b,{32}1b/2b,3/8,4/7,5/6,,,,,{4},
{8}8b/7b,{32}8b/7b,6,5,4,{8}2b,{32}1b/2b,3,4,5,{4}8bp3b[8:1]*q5b[8:1],8b,
{32}2b,3,4,5,1b,2,3,4,7b,6,5,4,8b,7,6,5,{4}1b-5[16:19],{32}2b,3,4,5,8b,7,6,5,
{16},,2,5,3,4,2,5,3,4,2,4,1b,,,,
{8}4/6,3,2/4,5,1-5[8:1]/6,,2-6[8:1],,
{4}3-7[8:1],3qq4[8:2]/5pp4[8:2],,,
{16}6/5,,,,6,,6,,6,,6,,6,,6,,
{16}6/5,,,,6,,6,,6,5,6,5,6,,7,,
{16}1/8,,,,3,,3,,3,,3,,3,,3,,
{16}3,4,3,4,3,4,3,4,{32}3,4,5,6,7,8,1,2,3,4,5,6,7,8,1,2,
{8}3/4-7[8:1],,3/4,2,{8}3b/8b,{32}3b/8b,2/7,1/6,5,{8},,
{8}1/8<5[16:3],,3,4,{8}2b/4b,{32}2b/4b,3/5,4/6,7,{8},,
{8}3-1[8:1],2,4-7[8:1],5,8-4[8:1],,1/8,2,
{32}3b,2,1,8,{8}4b-8[8:1],{32}3b,2,1,8,{8}4b,,{16}1,7,1,7,1,7,
{8}3<6[8:1],8/1,7,7,{8}1b/8b,{32}1b/8b,2/7,3/6,4/5,{8},,
{8}3p6[8:1],1/8,5,5,{8}1b/8b,{32}1b/8b,2/7,3/6,4/5,{8},,
{8}5-1[8:1],,3-8[8:1],2,6-1[8:1],7,4,,
{8}8/4b,{32}8b/4,7,6,5,{8}4/1b,{32}1/5,2,3,4,{8}5w1[8:1],,,,
{16}3/7h[16:3],,,8,7,,1/6,,4,5,3,4,2,5,3,4,
{16}1,6,8,7,5,6,8,7,5,6,8,7,1,6,2,5,
{16}3,4,2,1,3-8[8:1],8,4,7,{4}3b,{32}7b,6/8,1/5,2/4,3,,,,
{16}8,1,7,5,6,4,5,3,7,1,8,2,1,3,7,4,
{16}6,5,7,8,6,1,5,2,{32}7b,6,5,4,7b,8,1,2,7b,6,5,4,7b,8,1,2,
{16}5,3,5,4,6,5,7,4,5,2,5,2,8,1,7,8,
{16}7,4,6,5,7-4[8:1],3,8,2,7b,,,,{32}2b,1/3,4/8,5/7,6,,,,
{16}7,4,5,6,5,6,8,1,8,1,4,3,5,2,6,1,
{16}7,1,6,2,5,3,4,3,{32}5b,6,7,8,3b,2,1,8,4b,5,6,7,4b,3,2,1,
{16}7h[4:1],,,,5,6,4,7,3,8,2b,,{32}2b,1/3,4/8,5/7,6,,,,
{16}8,2,7,3,4,3,5,2,6,1,7b,,{32}7b,8/6,5/1,4/2,3h[8:1],,,,
{16}1,2,8,3,7,4,6,5,7,3,1b,,{32}1b,2/8,3/7,4/6,5,,,,
{16}7,8,6,1,5,2,4,3,6,2,8b,,{32}8b,7/1,6/2,5/3,4,,,,
{16}3,,3,4,3,,3,,2,,2,3,2,,2,,
{16}1,,1,5,1,,1,,8,,8,6,8,,8,,
{16}7,7,7,7,8,6,8,6,1,5,1,5,2,4,2,4,
{16}3,3,3,3,2,4,2,4,1,5,1,5,{32}1,2,3,4,
{32}5,6,7,8,{8}1b,,,,,,,,
{2}E3h[4:3]/B2h[4:3]/B3h[4:3],E7h[4:1]/B7h[4:1]/B6h[4:1],
{24}1b,2,3,4,5,6,7,8,1,2,3,4,8b,1,2,3,4,5,6,7,8,1,2,3,
{24}1b,8,7,6,5,4,3,2,1,8,7,6,8b,7,6,5,4,3,2,1,8,7,6,5,
{24}4b/3b,2,1,8,7,6,5,4,3,2,1,8,7b/5b,4,3,2,1,8,7,6,5,4,3,2,
{4}4b-7b[8:1]/1b,3b/4b,4b-7b[8:1]/6b,2b/4b,
{24}1b,2,3,4,5,6,8b,1,2,3,4,5,2b,1,8,7,6,5,1b,8,7,6,5,4,
{24}2b,1,8,7,6,5,4,3,2,1,8,7,4b,3,2,1,8,7,6,5,4,3,2,1,
{24}8b/3b,4,5,6,7,8,1,2,3,4,5,6,7,8,1,2,3,4,5,6,7,8,1,2,
{4}4b-1b[8:1]/3b,6b/4b,5b-8b[8:1]/2b,5b/7b,
{16}1b/6b,,7,8,6-1[8:1],,5,4,6,,2,,3b,,4h[4:1],,
{8}2b,2,1/3,2/8<5[8:1],3/7,{24}1,2,3,{8}4b,,
{16}2b,2,3,3,1b,1,7,7,5b,5,1,1,2b,2,3,3,
{4}1b-5b[8:1],3/1,1b-5b[8:1],3/1,
{16}3-8b[8:1],4,3,4,3,,5,,6-1b[8:1],5,6,5,6,,4,,
{16}3-8b[8:1],4,2,5,3,,5,,6-1b[8:1],5,7,4,6b,,4,,
{16}3b-8b[8:1],4,2,8,3b,,5,,6b-1b[8:1],5,7,1,6b,,4,,
{16}3b-8b[8:1],4,2,8,3,,5,,6b-1b[8:1],5,7,1,6,,3,,
{24}2,3,4,5/8,7,6,5,4,3,2,1,8,7,6,5,4/8,7,6,5,4,3,2,1,8,
{24}7,6,5,4/8,7,6,5,4,3,2,1,8,7/2,3,4,5/8,1,2,3,4,5,6,7,8,
{4}1h[1:1],4,6,6,
{4}6-8[8:1],2-8[8:1],4w8b[8:1],,{8}1b/2b,{32}1b/2b,3/8,4/7,5/6,,,,,{8}1b/2b,{32}1b/2b,3/8,4/7,5/6,,,,,{4},
{8}1b/2b,{32}1b/2b,3,4,5,{8}7b,{32}8b/7b,6,5,4,{4}1b-6b[8:1]*-4b[8:1],1b,
{8}8b/7b,{32}8b/7b,6/1,5/2,4/3,,,,,{8}8b/7b,{32}8b/7b,6/1,5/2,4/3,,,,,{4},
{8}1b/2b,{32}1b/2b,3,4,5,{8}7b,{32}8b/7b,6,5,4,{4}1bv6b[8:1]*v4b[8:1],1b,
{8}8b/7b,{32}8b/7b,6/1,5/2,4/3,,,,,{8}8b/7b,{32}8b/7b,6/1,5/2,4/3,,,,,{4},
{8}1b/2b,{32}1b/2b,3,4,5,{8}7,{32}8b/7b,6,5,4,{4}1bw5b[8:1],1b,
{32}7b,6,5,4,8b,7,6,5,2b,3,4,5,1b,2,3,4,{4}8b-4[16:19],{32}7b,6,5,4,1b,2,3,4,
{16},,7,4,6,5,7,4,6,5,7,5,8b,,,,
{32}1,2,3,4,5,6,7,8,1,2,3,4,5,6,7,8,1,2,3,4,5,6,7,8,1w5[8:1],2,3,4,5,6,7,8,
{4}1b`Cf,{8}2/8,3,4/5,6<1[8:1],,1,
{8}2,3/4,1/7,2-5[8:1]/6,,2/6,8,3/7,
{8},2,1-5[8:1]/5,1,8-4[8:1],8,7-3[8:1],7,
{8},6,2/7,3/4,{24}3-7[8:1]/4,5,6,7,8,1,{4}2,
{16}6,5,6,5,6,,1/8,,3,4,3,4,3,,1/8,,
{16}7,6,7,6,7,,1/8,,2/3,,4/5,,6/7,,1/8,,
{16}3,4,3,4,5,4,5,4,2,4,2,4,6,4,6,4,
{32}1,2,4,5,1,2,4,5,2,3,6,5,2,3,6,5,
{32}1,2,6,5,2,3,7,6,3,4,8,7,2,3,7,6,
{1}Cf,
{12}2-4[8:1],,2,6<1[8:1],,6,5-1[8:1],,5,7-4[8:1],,7,
{12}3-1[8:1],,3,8p4[8:1],,8,2>5[8:1],,2,6<8[8:1],,6,
{12}1q5[8:1],,1,7,,7,6,8,5,7,2,4,
{12}1<6[8:1],,1,4q8[8:1],,4,2-5[8:1],,2,6<8[8:1],,6,
{12}1-5[8:1],,1,7<4[8:1],,7,2-4[8:1],,2,1-6[8:1],,1,
{4}3>5[2:1],,,4>5[2:1],
{4}3h[2:1],,,,
{12}7,5,7,
{24}3,,5,4,6,,{12}2,6,3,
{24}7,,5,6,4,,
{12}8,1,7,
{24}2,,4,,3,,{32}7b/1b,6/2,5/3,4,,,,,{4}7b/1b,
{12}2,4,2,
{24}6,,4,5,3,,{12}7,3,6,
{24}2,,4,3,5,,
{12}1,8,2,
{24}7,,5,,6,,{32}2b/8b,3/7,4/6,5,,,,,{4}2b/8b,
{12}7,5,6,
{24}4,,5,3,6,,{12}1,7,2,
{24}6,,4,5,3,,
{12}6,2,7,
{24}2,,4,,3,,{32}7b/1b,6/2,5/3,4,,,,,{4}7b/1b,
{12}2,4,3,
{24}5,,4,6,3,,{12}8,2,7,
{24}3,,5,4,6,,
{12}3,7,2,
{24}7,,5,,6,,{32}2b/8b,3/7,4/6,5,,,,,{4}2b/8b,
{4}5h[8:1]/6h[8:1],5h[8:1]/6h[8:1],3h[4:1]/4h[4:1],,
{4}5h[8:1]/6h[8:1],4h[8:1]/3h[8:1],{32}7b/1b,6/2,5/3,4,,,,,{4}7b/1b,
{4}5h[8:1]/6h[8:1],5h[8:1]/6h[8:1],2h[4:1]/3h[4:1],,
{4}5h[8:1]/6h[8:1],2h[8:1]/3h[8:1],{32}7b/1b,6/2,5/3,4,,,,,{4}7b/1b,
{4}5h[8:1]/6h[8:1],1h[8:1]/3h[8:1],{32}7b/1b,6/2,5/3,4,,,,,{4}7b/1b,
{4}5h[8:1]/6h[8:1],1h[8:1]/3h[8:1],{32}7b/1b,6/2,5/3,4,,,,,{4}7b/1b,
{4}3h[8:1]/4h[8:1],1h[8:1]/7h[8:1],{32}7b/1b,6/2,5/3,4,,,,,{4}7b/1b,
{4}3h[8:1]/4h[8:1],1h[8:1]/7h[8:1],{32}7b/1b,6/2,5/3,4,,,,,{4}7b<8[4:14]/1b>8[4:14],
{1}A7/B7/B2/B1/A1/D2/A2/E3/E4/A4/E5/E6/A6/D7/E7/B6/B3/B5/B4/Cf,,,,
{4}6h[2:1],5,4h[2:1],,
{4}5h[2:1],4,3h[2:1],,
{4}6h[2:1],5,4h[2:1],,
{4}7h[2:1],6,5,4,
{4}6h[2:1],5,4h[2:1],,
{4}5h[2:1],4,3h[2:1],,
{4}6h[2:1],5,4h[2:1],,
{4}7h[2:1],6,5,,
{16}3h[8:3],,,,,,4,3,4,,,,,,,,
{16}5/7,,7/5h[8:2],,,,6,,6/4,,,,3/7,,,,
{16}3h[8:3],,,,,,4,3,4,,,,,,,,
{16}5/7,,7/5h[8:2],,,,6,,6/4,,,,3/7,,,,
{16}6h[8:3],,,,,,5,6,5,,,,,,,,
{16}4/2,,2/4h[8:2],,,,3,,3/5,,,,6/2,,,,
{16}6h[8:3],,,,,,5,6,5,,,,,,,,
{16}4/2,,2/4h[8:2],,,,3,,3/5,,3,4,2,5,1,6,
{16}1b-6[8:1],,6,6,1-4[8:1],,5,5,1b-5[8:1],,7,7,1,,8,8,
{16}3b>8[8:1],,{24}7,6,5,{16}3/4,,6,,6b,5,7,4,8-4[8:1],7,6,5,
{16}4/8b<5[8:1],,6,,{24}4b-8[8:1],3,2,{16}1,,2-6[8:1]/4b,,3,,7<5[8:1]/2,,8,,
{24}1-5[8:1]/7b,2,3,{16}4,,1/6<1[8:1],,7,,{24}6/2w6[8:1],3,4,{16}5,,2b,,,,
{16}4b/8b-3[8:1],,3,3,8-5[8:1],,4,4,8b-4[8:1],,2,2,8,,1,1,
{16}6b<1[8:1],,{24}2,3,4,{16}6/5,,3,,3b,4,2,5,1-5[8:1],2,3,4,
{16}5/1b>4[8:1],,3,,{24}5b-1[8:1],6,7,{16}8,,7-3[8:1]/5b,,6,,2>4[8:1]/7,,1,,
{24}8-4[8:1]/2b,7,6,{16}5,,8/3>8[8:1],,2,,{24}3/7w3[8:1],6,5,{16}4,,7b,,,,
{16}1b/5b,,2,4,3,,3,4,2,,7V52[4:1]/8V61[4:1],,5b/6b,,7/8,,
{4},{8}3/8,7,{32}5/6,4,3,2,1,8,7,6,{4}5b/8b,
{32}1b,4,1,4,1,4,1,4,{4}2b,{32}8b,5,8,5,8,5,8,5,{4}7b,
{16}2b,4,3,4,1,5,4,5,8b,6,5,6,2,5,4,5,
{16}3b-8b[8:1],4,3,4,3,,5,,6-1b[8:1],5,6,5,6,,4,,
{16}3-8b[8:1],4,2,5,3,,5,,6-1b[8:1],5,7,4,6b,,4,,
{16}3b-8b[8:1],4,2,8,3b,,5,,6b-1b[8:1],5,7,1,6b,,4,,
{16}3b-8b[8:1],4,2,8,3,,5,,6b-1b[8:1],5,7,1,6,,3,,
{24}2b,3,4,5/8,7,6,5,4,3,2,1,8,7,6,5,4/8,7,6,5,4,3,2,1,8,
{24}7,6,5,4/8,7,6,5,4,3,2,1,8,7/2,3,4,5/8,1,2,3,4,5,6,7,8,
{4}1h[1:1],4,6,6,
{4}6-8[8:1],2-8[8:1],4w8b[8:1],,{8}1b/2b,{32}1b/2b,3/8,4/7,5/6,,,,,{8}1b/2b,{32}1b/2b,3/8,4/7,5/6,,,,,{4},
{8}1b/2b,{32}1b/2b,3,4,5,{8}7b,{32}8b/7b,6,5,4,{4}1b-6b[8:1]*-4b[8:1],1b,
{8}8b/7b,{32}8b/7b,6/1,5/2,4/3,,,,,{8}8b/7b,{32}8b/7b,6/1,5/2,4/3,,,,,{4},
{8}1b/2b,{32}1b/2b,3,4,5,{8}7b,{32}8b/7b,6,5,4,{4}1bv6b[8:1]*v4b[8:1],1b,
{8}8b/7b,{32}8b/7b,6/1,5/2,4/3,,,,,{8}8b/7b,{32}8b/7b,6/1,5/2,4/3,,,,,{4},
{8}1b/2b,{32}1b/2b,3,4,5,{8}7,{32}8b/7b,6,5,4,{4}1bw5b[8:1],1b,
{32}7b,6,5,4,8b,7,6,5,2b,3,4,5,1b,2,3,4,{4}8b-4[16:19],{32}7b,6,5,4,1b,2,3,4,
{16},,7,4,6,5,7,4,6,5,7,5,8b,,,,
{32}2b,3,4,5,7b,6,5,4,3,2,1,8,7/2b,3,4,5,8b,7,6,5,4,3,2,1,8,7,6,5,4,3,2,1,
{32}8b,7,6,5,2b,3,4,5,1b,8,7,6,1b,2,3,4,5bw1[8:1],6,7,8,1,2,3,4,{4}5b,
{32}7b,6,5,4,2b,3,4,5,6,7,8,1,2/7b,6,5,4,1b,2,3,4,5,6,7,8,1,2,3,4,5,6,7,8,
{32}1b,2,3,4,7b,6,5,4,8b,1,2,3,8b,7,6,5,4bw8[8:1],3,2,1,8,7,6,5,{4}4b,
{16}6b/2b,,3b,4,3,,5b/4b,,8b/2b,,7,5,6,,7/3,,
{32}2b,,,,8b,7,6,5,2,,,,8b,7,6,5,3,,,,8b,7,6,5,3,,,,8,7,6,5,
{8}4b/3b,2b/3b,1b/2b,1b/8b,8b/7b,7/6,{32}7b/5b,6,7,8,1b,2,3,4,
{32}7,7,4,6,2,2,5,3,5,6,7,8,1,2,3,4,5/3,6/4,7/5,8/6,7,8,1/7,2/8,1bh[4:1]/3b,,,,,,,,
{8}8h[8:1],7h[8:1],6h[8:1],5h[8:1],{4}4b-8b[8:1],3b-7b[8:1]/4b,
{4}2b-6b[8:1]/3b,2bqq4b[4:1]/6bpp4b[4:1],,,
{4}1b/7b,,{16}3/8,,2,1,2,,3/8,,
{8}8-6[8:1]/3,,5,5-3[8:1],,7,7,6,
{8}2-8[8:1]/5,,4,4h[8:1],{16}1,5,1,5,2-5[8:1],,,,
{8}2-8[8:1]/7,,6,6V48[4:1],,1,2,3,
{8}7/4,5,6,8,{16}5,1,6,2,4,,,,
{32}3b/4b,2b/5b,1b/6b,8b/7b,,,,,
{32}2b/1b,3b/8b,4b/7b,5b/6b,,,,,1b/8b,2b/7b,3b/6b,4b/5b,,,,,8b/7b,1b/6b,2b/5b,3b/4b,,,,,
