&title=サクラノタトゥー
&artist=ピノキオピー × 一二三
&first=0.1
&des=甘口レモン
&lv_5=13
&inote_5=(176){4},,,,,,,,,,,,,
{8}3h[4:4]/4,,,,,,,,
4h[4:4],,,,,,,,5h[4:4],,,,,,,,6h[4:3],,,,,,1,,
2h[8:7]/4,,,4,,,4,,
3h[8:7]/5,,,5,,,5,,
4h[8:7]/6,,,6,,,6,,
8w4[4:2]/5,,,,,,,,4h[4:2],,1v7-5[4:1],,,,,,
3hb[4:3]/4,4,5,5,6,6,8,,
{16}26,,3,4,3,,8,,73,,6,5,6,,1,,3h[16:3]/4,,,6,5,,5-3[8:1],,7,,5-7[8:1],,,,5,,
1hx[4:2],,,,4,,5,,6,,7,8,7,,6^3[8:1]/1,,,,8,,,,2,,1-5-3[8:2],,8,,17,,,,
6,,7,8,7,,5,,73,,2,1,2,,4,,5/6h[16:3],,,3,4,,4-6[8:1],,2,,4-2[8:1],,,,4,,
8hx[4:2],,,,5,,4,,3,,2,1,2,,38,,,,78,,78,,16,,16,,25,,2b/5b,,,,
{8}3>5[4:5]/4,,4,,4,,4,,4,,4,,4-8[8:1],,34,2,1q5[8:1],,6,7,8p4[8:1],,3,2,
16,7,38,4,5/6h[4:1],,C,,2-4[8:1],,5,,5-7[8:1],,8,,1-5[8:1],,5,,37,,24,1,
7/8^3[8:1],,4,,1^6[8:1],,5,5,8[8:1]/4-8[8:1],,6,6,1-6[8:1]*-5[8:1],,1,,
34,,34,,4-6[8:1]/3,,34,3,4/6x,,46,,6-8[8:1]/4,,64,4,8x/4,,84,,8-2[8:1]/4,,84,4,
2x/4,,42,,42,,C,,6/5>8[4:2],,6,,6,,6,6,6/8pp4[4:2],,6,,6,,6,6,
6/5-1-4-2[4:2],,6,,6,,6,6,4h[4:2]/E7,,C,,E3,,
8h[4:1]/2,,6,4-2[8:1],1,8-4[8:1]/4x,,{48}87,E7,B6,B5,E5,,,,,,,,
{8}2,57,4-2[8:1],1,8-4[8:1]/4x,,{48}87,E7,B6,B5,E5,,,,,,,,
{8}2,57,4-2[8:1],1,8-4[8:1]/4x,,{48}87,E7,B6,B5,E5,,,,,,,,
{8}2,17,5,28,4,E7/B6/C/B3/E3,,1V35[16:3]/5V71[16:3],,,,,,
{12}8h[12:2],,E5,7hx[12:2],,E4,6hx[12:2],,E3,5hx[12:2],,,
{8}4x,4x,5,6,7h[8:4]/8,1,2,3,4h[8:3],7,6,5,46,46,37,37,{16}4,5,3,6,
{8}1h[4:1],,3,5-7[8:1],8,1-5[8:1]/5x,,{48}12,E3,B3,B4,E5,,,,,,,,
{8}7,42,5-7[8:1],8,1-5[8:1]/5x,,{48}12,E3,B3,B4,E5,,,,,,,,
{8}7,42,5-7[8:1],8,1-5[8:1]/5x,,{48}12,E3,B3,B4,E5,,,,,,,,
{8}6h[4:2],1,3,8,4,1/7-3[8:1],,{8}7/5w1[8:1],,Cf,,,,2-5[8:1],,
6-1[8:1],,3-8[8:1],,7-4[8:1],,1h[4:1],,3h[4:1],,5h[4:1],,7,7,68,,45,,1-5[8:1]/3,,
,,4b/6b,,1b/8b,,2-4[8:1],7,2,7,5-1[8:1],6,5,6,8-3[8:1],5,8,6,4-1[8:1],7,4,6,
8,8,47,6,15,2,38,7,26,18,26,45,2-7[8:1]/6-3[8:1],,26,,15,
{16}6,5,6,,3,4,3,,6,5,7,,3,4,2,,7,5,6,,2,4,3,,7,8,6,,45,,2,1,3,8,4,7,5,6,
8,7,1,6,2,5,3,4,1>8[8:5],,,,,,,,1hbx[8:3],,,,{8},,Cf/B7/B6/B2/B3/A2/A3/A7/A6,,,,,,,,
{16}1hx[16:1]/8hx[16:1],,,,3x,,3x,,3x,4x,3x,,3x,,3x,,
A7/B7/E8/B8/A8/D8,,,,A2/B2/E2/B1/A1/D2,,,,A6/B6/E6/B5/A5/D6,,3x,,3x,,3x,,
2hx[8:1]/4hx[8:1],,,,7hx[8:1]/5hx[8:1],,,,1hx[16:1]/8hx[16:1],,1hx[16:1]/8hx[16:1],,
2hx[8:1]/7hx[8:1],,,,6x,,6x,5x,6x^3[4:1],,6x,,,,,,,,,,1x,,1x,8x,1x-4-2b[4:1],,1x,,
5x-8-6b[4:1],,,,,,,,{8}1hx[8:2],,,,2hx[8:2],,,,1x,,2x,,3xp5[8:2],,,,
7h[4:1],,,6h[4:1]/4h[4:1],,,5h[4:1]/3h[4:1],,,1,8,7,46,5,35,3,
2h[8:8]/4x,5x,,5x,6x,7x,8x,7x,7hx[8:8],4x,,4x,3x,2x,1x,2x,
2h[4:1],,,3h[4:1]/5h[4:1],,,4h[4:1]/6h[4:1],,,8,1,2,53,4,64,6,
7h[8:8]/5x,4x,3hx[8:1],,2hx[8:1],,1hx[8:1],,2hx[8:8],5x,6hx[8:1],,7hx[8:1],,8hx[8:1],,
1bpp4b[4:6],,,,,,,,5xpp5[4:2],,,,,,,,2h[4:1],,4h[4:1],,5h[4:1],,7h[4:1],,
8-3[8:1],,4-7[8:1],,2-5[8:1],,6-1[8:1],,2,,48,,26,,5,5,4bx/E7,,1bx/C,,7bx/E3,,
,,,,,,,,,,,,,,,,,,
4-1[8:6],,,,,,,,5-8[8:6],,,,,,,,4-1[8:6],,,,,,,,5-8[8:6],,,,,,,,
4h[4:7],,,,3,,3,,2,,1,,8,,8q3^6[8:5],,C,,,,,,1,1/8x,,3b/7b,,1b/5b,,
{16}1,8,{8}2b/7b,,
68,5-7[8:1],3,5/1z5b[8:1],,{32}1b/2bx,B1/E2,C,B5/E6,{8},8x,
31,4-2[8:1],6,4/8s4b[8:1],,{32}8b/7bx,B8/E8,C,E4/B4,{8},1x,
38,25,4,1/8z4b[8:1],,{64}1b/8bx,B1/B8/E1,B7`B2,C,B3`B6,B5/B4/E5,,,
{8},2h[8:4],8,6,1,5,1/8-4[8:1],,8/6w2[8:1],,Cf,,,,8-5[8:1],,4-1[8:1],,
7-2[8:1],,3-6[8:1],,1h[4:1],,7h[4:1],,5h[4:1],,4,3,24,,18,,5/7-3[8:1],,,,
4b/5b,,2b/7b,,1-5[8:1],8,1,7,8-4[8:1],3,8,2,3-7[8:1],5,3,8,6-2[8:1],1,6,3,
4,4,35,7,28,4,1-3b[8:1],7-5[8:1],1-5b[8:1],7-3[8:1],1,7,8w4b[8:1],,8,,1b/7b,
{16}6,5,6,,3,4,3,,6,5,7,,3,4,2,,6,5,8,,3,4,1,,6,4,8,,27,,
4,5,3,6,4,5,3,6,4,5,2,7,4,5,2,7,{32}1b,2,3,4,5,6,7,8,
{8}1/5-1[8:1],,5-3[8:1]*-7[8:1],,5w1[8:1],,5,,{16}37,,2,,15,,7,8,7,,6,,48,,2,1,2,,
3,,17,,6,5,6,,37,,18,,7,,4,5,4,5,3,6,3,6,2,7,2,7,
{8}1b-3[8:1]/8b-4[8:1],,8b-6[8:1]/1b-5[8:1],,18,,
4-8[8:1],3,2/4b,,6/4-8[8:1],35,1/4b,,7/4-8[8:1],25,8/4b,,1,27,36,45,36,27,
1b^4qq1[4:3]/8bqq8b[8:3],,,,,,,,7h[4:2],,5x<4[8:3],,,,,,
7x/B3,7,7,B7/B8/4x,4,4,B2/B3/E3/5x,5,5,2x/B7/B6/D7/E7,2,2,78,35,12,46,,,,,
A1/A8/B1/B8/D1`E1,,,
