&title=Stage 5
&artist=LV.4
&first=-1.24
&lv_5=14
&des_5=JH
&inote_5=
(145){4},,,,{1}4h[64:109]/5h[32:57],
,{4}4b/3h[1:1],
E3,E2,E1,
8h[1:1],E8,E7,E6,
4h[1:1],E5,E6,E7,
7h[2:1],E6,2h[2:1],E4,
8p6[4:3],1,2,3,
4q5[4:3],6,7,8,
{8}1<5[8:5],1,5,5,3,3,1,1,
{16}1,5,2,6,3,7,4,8,{32}E5,E6,E7,E8,E1,E2,E3,E4,{4}Cf/E5,
{8}1/7,{16}6>4[8:1],8,,8,{8}6,{16}3,3h[16:3],,2-7[8:1],{8}2,4,
3,{16}2>4[8:1],5,,5,{8}2,{16}7,7h[16:3],,8-5[8:1],{8}8,6,
7,{16}8>2[8:1],3,,3,{8}8,{16}4,4h[16:3],,5-1[8:1],{8}5,3,
2,{16}3,8,,6,{8}1,{16}2/5,2/5,,4/6,{8}4/6,7,
1/8,{16}2>4[8:1],1,3,1,{8}2,{16}6,6h[16:3],,7-2[8:1],{8}7,5,
6,{16}7>1[8:1],4,6,4,{8}7,{16}2,2h[16:3],,3-8[8:1],{8}3,1,
2,{16}3<5[8:1],7,1,7,{8}3,{16}8,8h[16:3],,6-2[8:1],{8}6,7,
{16}8,7,6,5,4,3,2,1,{32}8x,7,6,5,4,3,2,1,{8}8v5[8:1]/4v1[8:1],2/6,
{4},2x/6x,{16}1,5,2,6,3-7[16:1],7-3[16:1],4,8h[16:3],
{4},8x,{16}4,7,3,6,2-5[16:1],5-1[16:1],1,4h[16:3],
{4},6x,{16}3,5,4,6,5-7[16:1],7-3[16:1],{8}4h[4:1],
{4},1x,{16}2,4,3,5,1-4[16:1],4-1[16:1],3,6h[16:3],
{4},{8}8x,{16}7,5,6,2,4,3,{8}5,4/6,
{16}2,1,{8}2,3/8,{16}2,1,3,7,8,6,{8}1,2/5,
{16}3,4,{8}2,1/8,{16}7,8,5,2,1,4,{8}7,8/6,
{16}1h[8:1]/5h[8:1],{8},{16}3h[8:1]/7h[8:1],{8},2/6,{32}5/1,2,3,4,5,6,7,8,1,2,3,4,5,6,7,8,
{4}5x/1b-6<4[2:3],5,5,5,
5,5,5,{8}5,5,
{4}4/5<3-8[2:3],4,4,4,
4,4,4,{8}4,4,
{4}8/4>6-1[2:3],7,6,5,
4,4,5,{8}6,6,
{4}6/1p8[4:3],5,4,3,
{16}E3,{8},{16}E7,{8},E5,E8/B8,B1/E2,{16}B5,B3,B7,B1,
{2}Ch[1:7],1-7>4p6[16:17],
{1},{4},,,{16},6q3<5-2-8[4:5],
{1},{4},,,{32},8<6-1-4V27[16:29],
{1},,{4},{16},{1}8<1[8:5],
{16}8x,1x,,7,{8}8,{16}6,7,,5,{8}6,4/5,3/6,
{16}4,5,,3,{8}4,{16}2,3,,1,{8}2,1/8,3/7,
{16}6,5,,7,{8}6,{16}8,7,,1,{8}8,2/1,3/4,
{16}2,1,,3,{8}2,{16}4,3,,5,{8}4,5/6,1/7,
{16}2h[16:3],8,,6h[16:3],{8}4,{16}3h[16:3],5,,7,{8}8,2/4,5/6,
{16}7h[16:3],1,,3h[16:3],{8}5,{16}6h[16:3],4,,2,{8}1,2/8,5/4,
{16}6h[16:3],8,,1h[16:3],{8}3,{16}5h[16:3],7,,2,{8}4,3/5,1/7,
{16}6,5,7,4,8,3,1,2,{32}E1,E8,E7,E6,E5,E4,E3,E2,{4}E1/Cf,
{16}6,5,6,5,7,5,{8}7h[4:1],{16}8,8,{8}8,{16}5/1h[8:1],5,{8}5,
{16}3,4,3,4,2,4,{8}2h[4:1],{16}3,3,{8}3,{16}1/5h[8:1],1,{8}1,
{16}7x,8,6,1,7,8,{8}5h[4:1],{16}4,4,{8}4,{16}1/2h[8:1],1,{8}1,
{16}3,4,2,5,3,4,{8}1h[4:1],{16}3,3,{8}3,{16}2/5h[8:1],2,{8}2,
{16}8x,8,6,6,4,4,2,2,8,8,{8}8,{16}2/6,2/6,{8}2/6,
{16}3x,3,1,1,7,7,5,5,3,3,{8}3,{16}2/6,2/6,{8}2/6,
{16}8x,8,7,7,6,6,5,5,4x,4,3,3,2,2,1,1,
{32}8x,7,6,5,4,3,2,1,8x,7,6,5,4,3,2,1,8xh[64:1],7h[64:1],6h[64:1],5h[64:1],4h[64:1],3h[64:1],2h[64:1],1h[64:1],8xh[64:1],7h[64:1],6h[64:1],5h[64:1],4h[64:1],3h[64:1],2h[64:1],1h[64:1],
{2}8>8[32:7],{32}E1,E2,E3,E4,E5,E6,E7,E8,{64}A1,D2,A2,D3,A3,D4,A4,D5,A5,D6,A6,D7,A7,D8,A8,D1,
{16}2x/1x,{8},{16}4/5,{8},8/7,{16}1/5,1/5,{8}1/5,{4}3b/7b,
{16}2/1,2h[8:1],,4,{8}4h[8:1],{16}8,8h[8:1],,7,8,6,1,5,{8}2,
{16}1/3,3h[8:1],,5,{8}5h[8:1],{16}8,8h[8:1],,7,8,6,5,8,{8}1,
{16}2/6,6h[8:1],,4,{8}4h[8:1],{16}1,1h[8:1],,2,1,3,8,4,{8}7,
{16}8/7,7h[8:1],,5,{8}5h[8:1],{16}1,1,2,8,3,5,1,7,4,6,
8,8h[8:1],,4,{8}4h[8:1],{16}2,2h[8:1],,3,2,4,1,5,{8}8,
{16}1/6,1h[8:1],,5,{8}5h[8:1],{16}2,2h[8:1],,3,2,5,4,7,{8}6,
{16}1/8,8h[8:1],,4,{8}4h[8:1],{16}6,6h[8:1],,7,6,8,5,1,{8}4,
{16}4/3,4h[8:1],,1,{8}1h[8:1],{16}6,6,8,7,5,6,1,8,4,5,
2x,2,,3/1,{8}3/1,{16}4/5,4/5h[8:1],,8,6,1,7,2,{8}8,
{16}2/1,2/1,,3/4,{8}4/3,{16}1/5,1/5h[8:1],,8,6,2,8,4,{8}6,
{16}3/7,3/7,,1/2,{8}1/2,{16}5/4,5/4h[8:1],,1,3,8,2,7,{8}1,
{16}8/6,8/6,,5/7,{8}5/7,{16}4,4,1,3,5,4,6,8,5,4,
1,1,,2/5,{8}2/5,{16}7/4,7/4h[8:1],,2,4,1,3,8,{8}2,
{16}8/7,8/7,,2/5,{8}5/2,{16}8/4,8/4h[8:1],,3,4,1,2,7,{8}8,
{16}2/6,2/6,,3/4,{8}3/4,{16}1/5,1/5h[8:1],,7,5,8,6,1,{8}7,
{16}2/8,2/8,,3/4,{8}3/4,{16}5,5,7,6,1,8,3,2,4,6,
1x-6[8:1],5,3,5,{8}1,{16}4,4h[8:1],,6,4,8,6,2,{8}8h[8:1],
{16}2-6[8:1],7,4,5,{8}2,{16}4,4h[8:1],,6,5,8,7,3,4,1,
8-4[8:1],2,6,4,{8}8,{16}5,5h[8:1],,3,5,1,3,7,{8}1h[8:1],
{16}7-2[8:1],2,5,4,{8}7,{16}5,5,3,4,8,5,6,1,8,2,
7x-3[8:1],5,6,8,{8}7,{16}1,1,3,2,8,5,7,1,{8}4h[8:1],
{16}2x-6[8:1],4,3,1,{8}2,{16}8,8,6,7,1,4,2,8,{8}5h[8:1],
{16}1x,5,8,4,7,3,6,2,5x,1,7,3,1x,5,7,3,
{24}5x,1,5,1,5,1,7x,3,7,3,7,3,{32}8x,1,2,3,4,5,6,7,{48}8/1,2,3,4,5,6,7,8,1,2,3,4,
{1}5bs1[4:7],
E
