&title=(纯伴奏)自己肯定感爆上げ↑↑しゅきしゅきソング
&artist=歌:藤田ことね (CV. 飯田ヒカル)
&first=1.2707
&des=Shuki03
&clock_count=4
&lv_5=13+
&inote_1=
&inote_5=(190){4}1>3[4:1],3<5[4:1],5<8[4:1],,,,,,
{8}7<5[8:1],,4,4,,B8,B2,B6,
{8}2>4[8:1],,5,5,,B1,B7,B3,
{8}6>4[8:1],,3,3,,B1,B7,B3,
{8}7<5[8:1],4,1>4[8:1],,
{16}5x,6x,7x,8x,1x,2x,3x,4x,
{8}5<7[8:1],,1,1,,B8,B2,B6,
{8}4>2[8:1],,8,8,,B1,B7,B3,
{8}4<6[8:1],,3,3,,B8,B2,B6,
{8}2>4[8:1],5,8<5[8:1],,
{16}1x,2x,3x,4x,5x,6x,7x,8x,
{8}8x-4[8:4]/1x-5[8:4],8b/1b,,,,,,,
{4}8,8,8,8,
{8}1>4[8:1],2,8<5[8:1],7,
{16}1,,2x,3x,4x,,5,,
{4}8b/7b,4b/3b,8-4[8:1]/1-5[8:1],{48}1b/8b,,,Cf,,,,,,,,,
{8}2,2,4x,3,7-4[8:1],,3,,3-8[8:1],3,7-4[8:1],7,2,,1,,
{8}6,4,7,3,7-4[8:1],2,7,,
{8}8/3,,1/2,3/8,7<4[8:1]/4-8[8:1],,7/4,,
{8}7,7,5,6,2>5[8:1],,1<6[8:1],,2-6[8:1],2,1-5[8:1],1,3,,3,,
{8}5,4,6,3,
{8}1/8,,
{8}8z4[2:1]/1s5[2:1],8/1,{4},,,,
{8}7,7,2,2,8,,1,,8,,1>4[8:1]/8<5[8:1],,{24},A2/A7,A3/A6,,,,
{4},2h[4:3],
{8}C,,C,,C,,
{4}3h[4:3],
{8}C,,C,,C,,
{4}4h[4:3],
{8}C,,C,,C,,
{8}5,5,4,4,
{16}5h[16:8]/B4,B3,B2,B1,B8,B7,B6,B5,
{16}6x,,6,,6,,6,,{64}5x/B5,B4,B3,E3,,,,,5x,,,,,,,,{16}5,,5,,
{8}4,3,2-6[8:1],1,2b,,,,
{16}3,,3,,3,,3,,{64}4x/B4,B5,B6,E7,,,,,4x,,,,,,,,{16}4,,4,,
{8}5,7<5[8:1],8,1,
{16}2x,3,4x,5x,6,7,8,1,
{16}2x,,2,,2,,2,,{64}3x/B4,B5,B6,E7,,,,,3x,,,,,,,,{16}3,,3,,
{8}7,6,5-1[8:1],4,5b,,,,
{16}7,,7,,7,,7,,{64}6x/B5,B4,B3,E3,,,,,6x,,,,,,,,{16}6,,6,,
{8}1,4>2[8:1],8,5<7[8:1],D3,,D7,,
{16}7/4,,6,5,6,,2/5,,3,4,3,,5b/4b,,,,
{8}4h[8:1],5h[8:1],3h[8:1],B5,B3,B8,6h[8:1],5h[8:1],7h[8:1],B4,B6,B1,
{8}5,4,3,,
{8}8h[8:1],1h[8:1],7h[8:1],B1,B7,B4,2h[8:1],8h[8:1],3h[8:1],B8,B2,B5,
{8}1,8,7,,
{16}3h[8:1],,4,2,4,,6h[8:1],,5,7,5,,4h[8:1],,5,3,5,,5h[8:1],,4,6,4,,
{8}B6,B3,C,,
{16}4/5,,4,5,3,,
{16}6h[8:1],,5,7,5,,4h[8:1],,5,3,5,,5h[8:1],,4,6,2,,
{8}B3,B6,C,,
{16}4,,4,3,5,,4-1[8:1]*-7[8:1],,4b,,,,,,,,
{16}5,,5x,4,6,,5-8[8:1]*-2[8:1],,5b,,,,,,,,
{16}1,,1,8,2,,1-4[8:1]*-6[8:1],,1b,,,,,,,,
{16}8,7,8,7,1,,8-5[8:1]*-3[8:1],,8b,,,,,,,,
{4}8>3[4:1],3<6[4:1],6-1[4:1],1-4[4:1],4-7[4:1],7-2[4:1],2-5[4:1],5-1[4:1],1-4[4:1],,8h[4:1],1h[4:1],
{8}8,8,1,1,
{16}8-5[31.6666666667#48:1],1,2-5[34.5454545455#44:1],3,4,5,6,7,
{32}8hx[4:3],1x,2hx[16:11],,,,,,
{4},,,
{4}2b/8b,1x/7x,4/5,3b/6b,
{2}4>8[95#4:1],8-4[95#8:1]*<8[95#2:1],,
8<4[95#4:1],4^2[95#8:1]*-8[95#8:1],,{8}1,1,,8,1,,1/8,,
{2}4/5<1[95#4:1],
1>1[95#2:1]*-5[95#8:1],,
{2}1>5[95#4:1],8,{8}1,,,,
{8}1,2,3,4,{16}8,7,6,5,1,2,3,4,
{16}5,,4,,5,,4,6,2h[8:3],,1,,8,,7h[8:3],,,,
{8}8,1,2,,3,4,5,
{16}4,5,3,6,4,5,3,6,2,7,1,8,2,7,1,8,
{8}2hx[8:3],1x,8,7h[8:3],,3,4hx[8:1],5,
{16}3,4,3,4,2b,,,,6,5,6,5,7b,,,,
{16}4,5,4,5,3b,,,,5,4,6,3,5b,,,,
{8}7/8,4,2/1,5,7/8,4,2/1,5,
{8}6x/5x,1,3/4,8,6/5,1,3/4,8,
{16}1x,2,3,4,5,6,7,8,1x,2,3,4,5,6,7,8,
{16}1x,2,3,4,5,6,7,8,1x,2,3,4-8[23.0303030303#66:1],5-1[23.75#64:1],6,7,8,
{16}1x,,,,
{8},,5h[4:1]/4h[4:1],,,,
{4}6h[8:1]/5h[8:1],3h[8:1]/4h[8:1],5hx[16:1]/4hx[16:1],{16}4b/5b,Cf,,,
{16}4x/5x,,4,5,3,,6,5,7-4[8:1],,7,,2,,1>4[8:1],,,,B7/B6,,,,
{8}6,2>5[8:1],7,,,
{16}8,,3,4,2,,6,5,7,,1,,8,,1,,
{8}8/3,,1/2,3/8,7<4[8:1]/4-8[8:1],,7/4,,
{16}7,,4,5,3,,5,3,7<4[8:1],,7,,2,,1>4[8:1],,,,B7/B6,,,,
{8}8-4[8:1],1-5[8:1],8,1,,
{16}3/6,,1,8,1,,3/6,,
{8}8-4[8:1],2-6[8:1],8,2,,,,,
{32}1x,2x,3x,4x,5x,6x,7x,8x,
{16}1bx/5bx,,,,
{16}3/4,,7,8,7,,2,1,{8}2-6[8:1],8-4[8:1],2,8,2,,2<8[8:1],6>4[8:1],2-5[8:1],6-1[8:1],2,6,
{16}4,,2,1,2,,7,8,{8}7-3[8:1],1-5[8:1],7,1,7,,7>1[8:1],3<5[8:1],7-4[8:1],3-8[8:1],7,3,
{4}Cf/B5/B4,,B8f/B1/E1,,E8f/B7/B8,E4f/B3/B4,Cf/B5/B4,,
{16}8/3,,6,5,6,,1/6,,3,4,3,,
{8}8z4[2:1]/1s5[2:1],8/1,{4},,,,
{8}7,7,2,2,8,,1,,8,,1>4[8:1]/8<5[8:1],,,,,,
{1}5pp5[4:1]*qq5[4:1],
{8}2>4[8:1],,5,5,,B1,B7,B3,
{8}7<5[8:1],,4,4,,B8,B2,B6,
{8}3<5[8:1],,6,6,,B8,B2,B6,
{8}2>4[8:1],5,8<5[8:1],,1>4[8:1],,,,
{4}8<5[4:1],5>3[4:1],3>1[4:1],8,E
