&title=オーバーライド
&artist=吉田夜世
&first=-0.05
&des=重音yuki
&lv_5=14
&lv_6=14
&inote_6=(204)
{4}
,,E7,E3,B6/B7,B2/B3,
{8}
1,1,8,8,27,27,27,,
B3/E3/B2/B6/B7/E7,,
1,2,38,,8,7,16,2h[8:1],4h[8:1],5h[8:1],7h[8:1],8h[8:1],1h[8:1],2h[8:1],B6/B5/E6,,
8,7,61,,1,2,83,7h[8:1],5h[8:1],4h[8:1],2h[8:1],1h[8:1],8h[8:1],7h[8:1],B3/B4/E4,,
4,4,4/B7/B8/E8,,6,6,6h[8:1]/B1/B2/E2,,3h[8:1]/4,,3h[8:1]/5,,3h[8:1]/6,,37,,
1,8,27,,8,1,2h[8:1]/7h[8:1],,1h[8:1]/8h[8:1],,2h[8:1]/7h[8:1],,3h[8:1]/6h[8:1],,
{16}
4b/5b,,,,4,,4p3[2:1],,,,4,,5h[8:1],,,,6h[8:1],,,,7,,,,,,
1,,8,,4,,4,,,,5,,5,,,,E2,,E6,,B3,,C,,E3,,B8,
,,,,,7,,7,,7,,7h[8:3],,,,1,,1,,,,8,,2,,7,,3,,6,,4-8[6:1],,5,,4<7[6:1]
,,,,4>1[6:1],,,,4,,,,,,C,,,,,,A1/B1,,,,A7/B7,,,,1,,8,,1h[4:1],,,,
E2,B2,B3,E4,4bxp8[6:1],,,,6,,6,,,,5,,2,,7,,1-5[6:1],,8,,1,,,,,,1,,1,,7,,7<4[6:1],,,,17,
,,,,,1,,8,,1,,3h[8:1]/2h[8:1],,,,6h[8:1]/7h[8:1],,,,C,,,,A7,,,,A6,
,,,2,,8,,4,,7,,1,,6,,2,,8,,4h[4:1]
,,,,,,,,4x-2[8:1]/5x-1[8:1],,,,4x/5x/C,,,,4x-8[8:1]/5x-7[8:1],,,,4x/5x/C,,,,2x/7x,,,,
1,,6,,3,,8,,2,,5,,3,,7,,1>5[2:1],
,,,,,5,,5<1[2:1],,,,,,1,,1>5[2:1],,,,,,5,,5,,,,7-5-1[4:1]/2v3-5[4:1],,,,,,,,,,
8,,8>4[2:1],,,,,,4,,4<8[2:1],,,,,,1,,2,,3,,4,,5,,6,,,,1,,,,24,,3,,57,,6,,4,,,,1>4[6:1],,8,,1<6[6:1],,,,1w5[6:1],,,,1,,,,,,28,,28,,,,,,37,,7-4[8:1]/3-8[8:1],,,,73,,,,26,
,,,Cfh[4:1]/7,,,,
{8}
7,,3,7,2,7,2,8,1-4[8:1],,1<6[8:1],,1
,,1p5[8:1]/8q4[8:1],,18,,3-8[8:1],4,3,6,6pp1[2:1],,3,,2,3,4,
,,,37,,2,2,4,4,6,6,8>4[4:1],,4<8[4:1],,1,,2,,2,,1h[8:1]/5h[8:1],,4h[8:1]/8h[8:1],,3h[8:1]/7h[8:1],,2-5[8:1]/6-1[8:1],,26,,37,,,
27,2-6[8:1]/7,,1,8,7,6,5,4,3,,47,,71,,1qq5[2:1]/2-4[8:1],,12,,,2,2,3,3,8,8qq6[8:1]/1pp3[8:1],,81,,27,,
,,1,,2h[8:1]/5h[8:1],,3h[8:1]/6h[8:1],,2h[8:1]/7h[8:1],,1-3[8:1]/8-4[8:1],,8-6[8:1]/1-5[8:1],,18,,
7-4[8:1]/3-8[8:1],,73,,,1,8,2,7,3,6,,,2,3,4,3,4,5-1[8:1],
,
{16}
35,,,,4-8[8:1],,,,46,,,,
5q1[8:1],,6,,4-8[8:1],,3,,7<4[8:1],,6,,3-7[8:1],,2,,
6-2[8:1],,,,46,,,,3-7[8:1],,,,35,,,,
4p8[8:1],,3,,5-1[8:1],,6,,2>5[8:1],,3,,6<1[8:1],,7,,
2-6[8:1],,,,82,,,,7-3[8:1],,,,71,,,,
8p4[8:1],,7,,1-5[8:1],,2,,6<1[8:1],,7,,2-6[8:1],,3,,
8-4[8:1],,,,82,,,,1-5[8:1],,,,17,,,,
8p4[8:1],,7,,1,
,2,,6,,4,5,4,,36,,3b/6b,
,,,
{8}
3h[8:1],4,3h[8:1],5,3h[8:1],6,3h[8:1],7,3h[8:1],8,3h[8:1],1,3h[8:1],2,3,,
6h[8:1],5,6h[8:1],4,6h[8:1],3,6h[8:1],2,6h[8:1],1,6h[8:1],8,6h[8:1],7,6,,
3h[8:1]/4h[8:1],,3h[8:1]/5h[8:1],,3h[8:1]/6h[8:1],,3h[8:1]/7h[8:1],,3h[8:1]/8h[8:1],,3h[8:1]/1h[8:1],,3h[8:1]/2h[8:1],,3/C,,
6h[8:1]/5h[8:1],,6h[8:1]/4h[8:1],,6h[8:1]/3h[8:1],,6h[8:1]/2h[8:1],,6h[8:1]/1h[8:1],,6h[4:1]/8-4[8:1],,8,,1,,
{16}
2,,2,3,4,,4,,3,,7,6,5,,5,,6,,4,5,4,,57,,6,,24,,3,,,,
7,,7,6,5,,5,,6,,2,3,4,,4,,3,,5,4,5-7[16:1],,4-2[8:1],,5-1[8:1],,4,,5,,,,
2,,1,8,1,,7,,7,,8,1,8,,2,,2,,1,8,1-4[8:1],,1,,8-5[8:1],,8,,1,,
{8},1,7,1,8,3,8,4,6,4,7,3,7,1,6,1,,,,,,,Cfh[8:5],,,,,
,,2-5[8:1]/6-1[8:1],,26,,3,3,
7,7,2,2h[8:5],B6/B7,,E6/A5,,
E8/A7,,1w5[8:1],,1,,2,5,
3,6,4h[8:1],,8>4[4:1],,6,7,
8,,,,35,,2,2,
6,6,1,1h[8:5],E6/E5,,B6/B7,,
E7/E8,,2-4[8:1]/1qq5[2:1],,21,,3,3,
2,2,1,1,{32}8x,7,6,,,,,,2x,3,4,,,,,,
7x,6,5,,{8},,3,3-8[8:1],,7,6,5,4,3,2,1>4[8:1],,1-6[8:1],,1,,3-7[8:1],,3,,5,5,2,2,7,7,8w4[8:1],,8,,17,,,,27,,3,4,3,5,4,
6,2<6[4:1],,6>2[4:1],,1,,1qq5[2:1],,1,,3,2,1,8,7,6,5,
,,37,37,,26,,{32}/5xh[16:14]/3,4,,6,7,8,1,2,3,4,,6,7,8,1,2,3,4,,6,7,8,1,2,3,4,,6,7,8,1,2,6xh[16:14]/3,4,5,,7,8,1,2,3,4,5,,7,8,1,2,3,4,5,,7,8,1,2,3,4,5,,7,8,1,2,3/7xh[16:14],4,5,6,,8,1,2,3,4,5,6,,8,1,2,3,4,5,6,,8,1,2,3,4,5,6,,8,1,2,3<2[2:1],,,,,,,,
{16},,,,,,,,,,,,3,4,2q5[2:1],,,,2,,8,,7,,6,,,,6,5,7p4[2:1],,,,7,,1,,2,,3,,,,3,5,1pp5[2:1],,,,1,,8,,7,,6,,,,6,4,8qq4[2:1],,,,8,,1,,2,,3,,,,
{8}1,,6,6,3,3,7,7,1-5[8:1],,1/7-3[8:1],,2-5[8:1]/7,,28,,8>4[2:1]/4,,5,6,7,8,1,2,3-6[8:1],,3>8[8:1],,3,,,,27,,1,1,6,6,3,3,8-6[8:1],,1-5[8:1]/8,,8-4[8:1]/1,,8/1-3[8:1],,81,,1,8,2,7,3,6,4h[2:1],,,1,8,7,1,2,3b,,
{16}
38,,2,1,2,,,,
16,,7,8,7<4[8:1],,8,,7/1-5[8:1],,2,,1/6-3[8:1],,7,,6/2>5[8:1],,1,,28,,,,
61,,7,8,7,,,,
83,,2,1,2>5[8:1],,1,,2/8-4[8:1],,7,,8/3-6[8:1],,2,,3/7<4[8:1],,8,,71,,,,
34,,2,5,2,,,,
56,,7,5,7-2[8:1],,7,,3-6[8:1],,3,,5-8[8:1],,5,,1-4[8:1],,1,,7,,,,
37,,6,4,6,,,,
26,,3,5,3,,36,,36,,27,,72,,1,8,1,,2-5[408#4:1]/7-4[408#4:1],,2/7/B6/B5/B4/B3/C,,,,
