&title=Nostalgic Magica
&artist=cosMo@暴走P
&first=0
&lv_5=13+
&des_5=Locks@徐行p
&inote_5=
(63){4},{12}6h[4:1],,5h[24:1],{6}5h[4:1],{12}4h[24:1],4h[4:1],,3h[24:1],
3h[6:1],7h[12:1],,2h[4:1],4,5,7h[6:1],5,4,8bz4[6:1]/1bs5[6:1],{24},,,,,,,,,,5,
5,4,4,{12}3h[12:1],{24}6h[24:1],3h[24:1],7h[24:1],3h[24:1],{12}7,7/1-6[12:1],2/6-3[12:1],7/3-8[12:1],
{24},,,,,,{8}6h[4:1],{24}4,4,4,3h[24:1],6h[24:1],2h[24:1],6h[24:1],{12}1,6/1-4[12:1],2/4-7[12:1],4/7-1[12:1],
{24},,,,,,6,3,7,2,{12}7h[12:1],{24}2h[24:1],6h[24:1],2h[24:1],5h[24:1],{12}2,7/1-6[12:1],2/6-3[12:1],6/3-8[12:1],
{24},,,,,,6,5,4,6,5,4,{4}7/3h[12:1],{24}5b/2b,{48}3,4,{24}3,4b/7b,{48}6,5,{24}6,
{12}8b/1b,{24}2,3,5,6,{12}7h[6:1],{24}5,4,{12}3,3h[4:1],{24}4,5,{12}6,6h[4:1],{24}4,3,{12}2,
2h[6:1],4,5,5h[4:1],{24},,4,{48}4,3,{12}2,2/6h[12:1],1,8h[48:17],{24}7,{48}7,6,{12}5,
{24}6,{48}6,5,4,3,2,1,8,7,6,5h[16:3],{4}1b,{12}5/6h[3:1],4,3,2,{24}4,4h[8:1],,5,
{12}5h[4:1],4,{24}4,3,{4}2h[12:5],6h[6:1],{16}5b/1b,3b/7b,{24}2b/6b,2b/6b,{48},,7b,
6,5,4,1,2,3,4,5/6,7,8,1,{4}3b/2b>2[1:1],,3h[12:5],
,2>2[4:3],,3,
2<2[2:3],3h[2:1],{12},,,,,,,,1,
1h[2:1],,,,,,,,,{4}7b/3b,
{24}6/2-5[12:1],2,{12}2,3,{24}2/6-1[12:1],6,{12}6,7,{24}6/3-8[12:1],3,{12}3,2,
{24}3/7-4[12:1],7,{12}7,6,{24}7/2>5[12:1],2,{12}2,3/7,{24}2/6<1[12:1],6,{12}6,7/3,{24}3/6,3,{12}3,7/2,
{24}3-5[12:1]/6-4[12:1],3/6,{12}6<4[12:5]/3>5[12:5],,{4}6b/3b,{12},,,,,,2h[12:1],
4h[12:1],5h[12:1],6h[4:5],,,,,,{4}3h[3:1],
{12},,2,3,{24}4,4,3,2,{12}2h[4:1],{24}4,4,5,6,{12}6h[4:1],{24}1,2,3,3,
{12}3h[6:1],{24}5,6,7,7,{12}7/3,{24}2,3,1,3,{12}6/2,{24}7,6,{12}8,{24}2b/6b,3h,2b/6b,3h,2b/6b,3h,
{4}5b/1b,{8}3/6h[8:1],{24}3,4,5,{12}6h[12:1],{24}3h[24:1],6h[24:1],{12}2,1bv4[12:1]/7bv4[12:1],8b/4bV28[12:1]*V68[12:1],2b/6b,
{4}1b/7b,{24}4h[8:1],5,6,7,,6h[24:1],5h[24:1],6h[24:1],5h[24:1],6h[24:1],{12}5,{24}5,4,3h[24:1],4h[24:1],3h[24:1],4,
3,2/8,{48}2,8,7,6,5,7,6,5,{24}4b,6h[8:1],4,3,2,5,4,6/3,5,4,{12}7/3,6bv8[12:1]/4bv2[12:1],5b/1b,3b/7b,
{6}4b/6b,{48}8,7,6,5,{12}4b,{48}1/7h[12:1],2,3,4,{12}5b,{48}8/2h[12:1],7,6,5,{12}4b,{24}1/8,1/8,{48}2,3,4,5,7,6,5,4,(126)1,2,3,4,
5,6,7,8,1,2,3,4,5,6,7,8,1,2,3,4,5,6,7,8,{12}1b,(63){24},7/2h[8:1],,,4,5,6,7h[12:1],,5h[24:1],7h[24:1],4h[24:1],
,8bq5[12:1]/2bp5[12:1],,1b/5b<1[12:1]*>1[12:1],,3b/7b,,2b/8b,,,,,,2h[12:1],7,6,2h[12:1],7,6,5h[24:1],2h[24:1],5h[24:1],2h[24:1],5,
,6h[12:1],4,3,6h[12:1],3,2,{48}1,8,7,6,5,2,3,4,{24}5b,,4/5,6/4,7/4,5/4,3/5,2/5,1b/5b,,6b/2b,,3b/5b,
,5/2,5/2,{96}3,,,4,,,{48}3,5/7,,{24}6,5b,{48},,,,,,5/3,6,7,8,{24}1b,{48},,4/6,3,2,1,{24}8b,{48},,5/3,6,7,8,{24}1b,,4/5,
4/5,{48}3,2,1,5,6,7,8,(126)3b,4,5,6,7,8,1,2,3,4,5,6,7,8,1,2,3,4,5,6,7,8,1,2,3,4,5,6,7,{24}8,{96}1/5,,,,,,,6,,,,,,,,,{12}7,
8,1,2,{96}3,,,,,,,(63)8bv2[32:19]*>8[4:7],{4},,,{16},,,{64},,,{192},{32}5h[1:1],
E
