&title=Liv1ng 1n The F4st Lan3
&artist=Veezdom/Chen-ing Music
&first=0.05
&des_5=Asunasa
&lv_5=14
&des=Asunasa
&inote_5=(200){4},,,,,,,,{16}1,
8,1,8,2,7,1,8,{8}2,7,{4}3-6[8:1]/7-2[8:1],
{16}7/3b<3-8-6-4-1b[4:7],Cf,{8},,,,,,,,,,,,,,,{1}7qq4[16:9],
3qq8b[8:5],
{4}3,3/B7,{8}3,3,{4}3h[8:1]/B8,
7,7/B3/E4,{8}6,6,{4}6h[8:1]/E2/B2,
4-1-7-3[2:1],E8/A7/D8,{8}6,6,{4}6h[8:1],
{8}8x/2x,{16}1,1,1,1,1,1,{8}1,2bx/7,6/3bx,5/4bx,
{4}6bx-2-8-4[1:1],3,3,3,
3,3,3,2,
1bx-5-3-7[1:1],6,6,6,
6,6,{2}1s5[8:1]*-5[8:1],
{8}4x/7x-5[8:1],4x,4x,4x,3x/8x-4[8:1],3,3,3,
6h[16:1]/2-4[8:1],6h[16:1],6h[16:1],6h[16:1],7h[16:1]/1-5[8:1],7h[16:1],7h[16:1],7h[16:1],
3,2b/4b,,6,{4}7b/5b,{8}2,1b/3b,
{4}8b-4[8:1],2b-6[8:1],5bw1b[8:1],{32}5b,B5,Cf,B8/B1/B2,{8},3/6,
5,3/4,1,2/5,3,4/7,3,
2/8-6[8:1],4,3/8-4[8:1],5,4/8-6[8:1],3,{4}8/2,
{8}4/5,2,4/5,7,4/6,2,5/3,7,
8/2,{16}1,1,{8}1,8-4[8:1],1,8,{4}Cf/B8/B1/B5/B4/E7/E3/B2/B3/B7/B6,
{8}1/2,8,1/2,3,4/5,6,5,1-3[8:1],
3,5/1-6[8:1],6,5/1-4[8:1],4,5/1,{4}7h[8:1],
{8}8/7,6,1/2,8,{6}7/3,1/5,{12}8/4,2h[12:1]/6h[12:1],
{8},{16}3,4,3,4,,6,5,6,{8}5,{16}3,3,{8}4,
6-1[8:1],4,{4}6b,{8}4/3-8[8:1],5,{4}3b,
{8}7<4[8:1],8,{4}7b/1,{8}1>4[8:1],8,1b/7,7,
6/5>2[8:1],7,{4}5b/6,{8}3v8[8:1],5,{4}3b/4,
{8}7/1,2,{4}6h[8:1],{8}2-6[8:1],{16}7,7,{8}2,Cf,
{4}7b/4b,2b/5b,{8}6b/3b,7b/2b,{32}8b/1b,7b/2b,6b/3b,5b/4b,{8},5/6-1[8:1],
7,{4}6b/5,{8}4/3-8[8:1],2,{4}3b/4,
{8}7x/1x,6x/2x,,3x/4x,{4}2x/5x,{8}1x/5x,8x/4x,
7/3,{16}2-5[8:1],8,{8}8,2,7-4b[8:1],{16}8,8,{4}7,
{2}7h[4:1]/2pp5[8:5],{8}6,6h[16:1],6h[16:1],6h[16:1],
4xh[16:1]/6xpp1[8:5],4h[16:1],4h[16:1],4h[16:1],2-4b[8:1],2,{4}2,
{2}7xh[4:1]/3xh[4:1],{8}2b>5b[4:1],5,6h[16:1],6h[16:1],
6-8-2b[16:5],4xh[16:1],4xh[16:1],4xh[16:1],{4}A3/D4/E4/A4,B7/E7/B6/B3/B2/E3/Cf,
{2}2h[4:1]/8-6-4-6-8[4:3],{8}3,3,2,1,
1>4[8:1],6h[16:1],6h[16:1],6h[16:1],{4}5-2[8:1],6/5b,
7qq4[8:5],{8}1h[16:1],1h[16:1],2h[16:1],2h[16:1],3h[16:1],3h[16:1],
1-3[8:1],{16}5,5,{8}1-7[8:1],{16}6,6,{8}1-4[8:1],{16}5,5,{4}1,
{32}1bx/8bx<8<8-6-4-2-8b[2:7],E2/E8,E3/E7,E4/E6,{8}E5f,{4},,,,,,,,,,,,,,,5,
3/B7,{8}4,B8,{4}4/E1,
6,6/E2,{8}5,B2,{4}5/E3,
3,4/E8,{8}4,B7,{4}3,
{8}3x/5x,{16}4,4,4,4,4,4,{8}4,3b/5x,2b/6x,1b/7x,
{4}2bh[2:1],{8}6,6,{4}7h[4:1],{8}3,3,
{4}2-4[8:1],2/1-5[8:1],1/8-6[8:1],8,
3h[4:1],{8}6,6,{4}5h[4:1],{8}2,2,
{4}1-3[8:1]*-4[8:1],1-7[8:1]*-6[8:1],1-5[8:1],1,
6h[4:1],{8}4,4,{4}7h[4:1],3h[8:1],
2-6[8:1]/7-4[8:1],2-8[8:1],2-4[8:1]/7-4[8:1],2/7,
6h[4:1],{8}3,3,{4}6h[4:1],{8}5h[8:1],7,
{4}4h[4:1],{8}8,8,3-7[8:1],3,6-1[8:1],6,
{4}4h[4:1],{8}8-5[8:1],8,2-6[8:1],2,7-4[8:1],7,
{4}3-1[8:1],6/3-5[8:1],7/3-8[8:1],8/3,
7h[4:1],{8}1-5[8:1],1,7-4[8:1],7,2-6[8:1],2,
{4}7-1[8:1],4/7-5-1[4:1],{2}3/7,
{8}2b,2,2/7h[8:1],2,2/7,7,7,7/3h[8:3],
{4}7,6h[4:1],4h[4:1],5h[4:1],
{1}4bq1q6<4[8:5],
{4}7b-3b[8:1],8b-4b[8:1],1bw5b[8:1],{16}1b,{32}Cf,B6/B5/B4,{8},1bx/2bx,
6/5,8/7,3/4,1/8,2/5,7/4,2/5,
{4}8/7-5[8:1],7/8-4[8:1],8/1-5[8:1],2/1,
2h[8:1]/7h[8:1],{8}3/5,6/4,2/5,7/4,3/4,8/7,
{4}1/2-6[8:1],2/1-5[8:1],1/8-4[8:1],8/7,
6h[4:1],{8}3,3,{4}1h[8:1]/2h[8:1],{8}8/7,1/6,
{4}7-4[8:1],7/8-5[8:1],8/1-4[8:1],1/2,
3h[4:1],{8}5,6,2v5[8:1],{16}7,7,{8}2,7h[8:1],
6-1[8:1],{16}5,5,{8}6,3qq8[4:1],{16}4,4,{8}3,{4},4/5,
{8}6/2,7/3,4/8,6/4,2/4,3/5,
{4}5-7[8:1]/4-8[8:1],4-2[8:1]/5-1[8:1],5-7[8:1]/4-8[8:1],5/4,
2h[8:1],{8}7/5,5/2,5/6,5/3,{4}1h[8:1]/2h[8:1],
7-5[8:1]/8-4[8:1],8/7,{8}1/2,1/2,{16}2,3,5/4,6,
7,8/1,{8},3/5,4/7,{6}2h[16:3]/6h[16:3],,1/5,
{4}2-8[8:1]/7-3[8:1],2b/7b-5-3[8:1],2-6[8:1],{8}2/7,7,
{4}8h[4:1],{8}5,5,{6}4/7,6/2,{24}8/4,7,{48},{16}6,
5,4,3,2,1,8,7/2,3,4,5,6,7,8,1,2,3,
{1}4bpp1[2:1]/6bqq1[2:1],
{8}8/7-4[8:1],1,{4}7b/8,{8}2/1-5[8:1],8/3,{4}1b,
{8}6/4-8[8:1],{16}7,7,{4}4b,{16}1b/7b,{8},{16}8b/3b,{8},2b/5b,
{16}2/1,3,4,5,6,7,8,1,{8}3/4,5/6,8/7,{16}4,4,
{4}5h[4:1],{8}2-8[8:1],2,7-4[8:1],7,1,2,
{16}5b/E3f/A2/B2,{8},{16}4b/E8/D8f/A7,{8},6b/B1/E1/E2/A1,,2/B5/E6/E5,3/7,2/6,
1/8,{16}2,2,{8}1,8,8,{16}1,2,3,4,8,7,
6,5/4,3,2,{8}1-3-5[8:1],8,1,7-4[8:1],8,7,
1-5[8:1],1,{4}1b/8,{8}3>8[8:1],2,{4}4/3b,
{8}6<1[8:1],4,{4}5/6b,{8}4-7[8:1],5,{4}3/4b,
{8}6/2,2h[4:1]/6h[4:1],{4},{8}3/7,8/4,{16}1/5,8/4,7/3,6/2,
{32}1x/5b,2,3,4/3,5,6,7,8,1,2x/6b,5,4,3,2,1,8,{8}2x/6x,4-1[8:1]/8-5[8:1],{16}1/5,{8},{16}B7/C/B3,
E
