&title=中国话
&artist=S.H.E
&first=0
&des=D.N.S.
&clock_count=4
&lv_5=13+
&inote_5=(100)
{1},
{4}4h[4:2],,,,4h[4:2],,,,
{16}3/7h[8:5],,,,4,,,,5,,,,8/4,,,,7h[16:4]/3,,3,,2,,3,3>8[16:1],
{16}4/5,,,3,{64}7b,6,5,4,3,2,1,8,
{16}7/3,,
{16}1b-4[16:1],,7/8,6,1,5,6,,{24}2-5[16:1],1,2,{16}8,8,2,7,7,,
{16}8-4[16:1],,6,4,8,3,2,1,3h[8:1]/8,,2,1,8q4[16:1]/4q8[16:1],7/3,2/6,1/5,
{16},,7,2-6[16:1],6-4[16:1]*-4[16:1],1,5,2,8b,,
{16}7-5[16:1]*-5[16:1],3-1[16:1]*-1[16:1],8-4[16:1],4,7,3,8b,,
{16}5,6,4,3,4/5,6,3/4,2,5w1[16:1]/6,7,4,6,5,,
{16}3/7,,1,2,3,{32}4,4,{16}5,3,4/6,4/6,5-8[16:1],5,4,3/5,3/5,,1,,
{16}1,8,2pp5[16:3],7,6,6,2,7,8,1,8/4,,3,2,1-6[16:1]/6,5,4,3,1/2,,
{16}4/5,4/5,1/8,1/8,4/5,4/5,1/8<4[16:4],,{32}4>8[16:5],5,
{16}4,,,,,,,,4<7[16:1],,,,4,
{64}2b,3,4,5,6,7,8,1,
{16}2/6,,
{16}3/5,4/6,5/8,,6/4,5/3,4/2h[8:1],,5h[16:1],4h[16:1],7h[16:1],{32}5,5,
{16}8h[16:1],6h[16:1],1h[8:1],,5h[16:1],2h[16:1],4h[16:1],8h[16:1],
{16}2h[16:1],5h[16:1],8h[16:1],4h[16:1],2h[16:1],3h[16:1],8h[8:1],,
{16}4h[16:1],2h[16:1],1h[16:1],3h[16:1],8h[16:1],6h[16:1],1h[16:1],3h[16:1],
{16}8h[16:2],,5,5,6h[32:1]/4h[32:1],6h[32:1]/4h[32:1],7h[16:1],5h[16:1],
{16}4h[16:1],3h[16:1],1h[16:1],2h[16:1],8h[16:1],1h[16:1],7h[16:2],,
{16}3,4,5,6,4/7,{32}2,2,{16}4h[16:1],1h[16:1],7,,,,
{16}2,8,1v4[16:1]*v6[16:1],6,3,8,1,,
{16}2<7[32:3],8<5[32:3],6>3[32:3],4,6h[8:1],,,,
{16}8-3[16:1],3-7[16:1],7-4[16:1],1,8,,,,1,1,1s5[32:3],,
{24}7,1,7,{16}1,,8,8,3>5[16:3],,{24}2,3,2,{16}3,,
{16}4-8[8:1],4,4,,4,,7,7,
{4}6h[4:2]/4h[16:11],,{8},{64},,,,6,,,,2-6[8:1],1,8,7,6,5,4,3,{8}2,
{16}8b-4[8:1]/2b,,7,,3>8[8:1],,,5,3,6,6h[8:1],,8>3[8:1],,,,7/8<5[8:1],,,,
{16}1/8>3[8:1],,,6,8-4[8:1],7,7,,1-5[8:1]/8,,2,,1/6<1[8:1],,,,
{16}6/2q5[4:1],,,8,2,7,7,,8,,4,,4>1[16:1],,4<7[16:1],,4-8[16:1],,4,,4,5,5,
{32}8,1,2-5[16:1]/7,,,,1,,,,
{16}8b-3[8:1]/2b,,7,,8/6<1[8:1],,,4,6,3,3h[8:1],,1<6[8:1],,,,2/1>4[8:1],,,,
{16}8/1<6[8:1],,,3,1-5[8:1],2,2,,8-4[8:1]/1,,7,,8/3>8[8:1],,,,
{16}3/7p4[4:1],,,1,7,2,2,,1-3[8:1],,8-6[8:1],,1-5[8:1],,8-4[8:1],,
{8}1>8[4:1],8,1,,4,4,
{16}5h[16:1],,3h[16:1],,7h[16:1],4h[16:1],,5h[16:1],2h[16:1],,8h[16:1],,8h[16:1],,
{16}8h[32:1],1h[32:1]/7h[32:1],2h[32:1]/6h[32:1],,3h[16:1],,
{32}5h[32:1],4h[32:1],{16}5h[16:1],3h[16:1],4h[16:1],1h[16:1],6h[16:1],
{16}3h[16:1],8h[16:1],1h[16:1],,1h[32:1],8h[32:1]/2h[32:1],7h[32:1]/3h[32:1],,
{16}6h[16:1],4h[16:1],5h[16:1],3h[16:1],,2h[16:1],{32}8h[32:1],1h[32:1],
{16}8h[16:1],2h[16:1],,1>8[4:2]/6h[16:1],,8,8,1b,,,,,,,,,,,,
{16}6/5-1[8:1]*-1[8:1],,3/4,,
{16}4b-8[8:1]*-8[8:1]/5b,,3,,7<4[8:1]*<4[8:1],,,1,7,2,2h[8:1],,4<7[8:1]*<7[8:1],,,,
{16}3/4>1[8:1]*>1[8:1],,,,
{16}5/4<7[8:1]*<7[8:1],,,2,4-8[8:1]*-8[8:1],3,3,,
{16}5-1[8:1]*-1[8:1]/4,,6,,5/2>5[8:1]*>5[8:1],,,,
{16}2/7p4[4:1]*p4[4:1],,,4,7,3,3,,2,,1,,
{16}8<5[16:1]*<5[16:1],,8>3[16:1]*>3[16:1],,8-4[16:1]*-4[16:1],,8,,8,1,1,
{32}4,5,6-1[16:1]*-1[16:1]/3,,,,5,,,,
{16}4b-7[8:1]*-7[8:1]/6b,,3,,2>5[8:1]*>5[8:1],,,8,2,7,7h[8:1],,
{16}5>2[8:1]*>2[8:1],,,,6/5<8[8:1]*<8[8:1],,,,
{16}4/5>2[8:1]*>2[8:1],,,7,5-1[8:1]*-1[8:1],6,6,,
{16}4-8[8:1]*-8[8:1]/5,,3,,4/7<4[8:1]*<4[8:1],,,,
{16}7/3p8[4:1]*p8[4:1],,,5,3,6,6,,5-7[8:1],,4-2[8:1],,5-1[8:1],,4-8[8:1],,
{8}5<4[4:1],4,5,,8-4[16:1],1,
{16}8b/1b,,2-5[16:1],5,3,4,2,,7,7,5,6,4-8[16:1],5,5,,4/5,,7,8,6-3[16:1],1,7,8,6,,
{16}2,2,5-1[16:1],3,6,4,5/4,,
{16}7,2-5[16:1],5-3[16:1],1,5,2,6,,
{16}7-5[16:1],3-1[16:1],8-4[16:1],4,7,3,8,,
{16}5,6,4,3,4/5,6,3/4,2,5w1[16:1]/6,7,4,6,5,,
{16}3/7,,1/8,2,1/8,7,1/8,,3/4,5,3-8[16:1]/4-7[16:1],2,3/4,,3/4,,
{16}2/5,,8,7,1,2,8,1/7,2/6,,8h[4:1]/3,2,3,2,3,2,3/6,,
{16}7,2-6[16:1],6-3[16:1],1,6,2,8,,
{16}7-5[16:1],3-1[16:1],8-4[16:1],4,7,3,8b<1[4:2],,,,,,,,,,,,8,,7/2,,
{8}3/6,E
