&title=World Ender
&artist=sasakure.‌UK × TJ.hangneil
&first=-0.05
&des=Beyond the world -ひがんばな-
&lv_5=14+
&inote_5=(270){4},,,,,,,,
{2}5<8[1:5]/1h[1:1],,,2h[1:1],,,3h[1:1],,,4b,,,4>1[1:5]/8h[1:1],,,{4}7h[2:1],,,6h[2:1],,,5h[1:1],,,,,,4b,,,4,5,6,
{8}7h[4:1],,8,7,1,6,2,5,3,4,2h[4:1],,1,2,8,3,7,4,6,5,6h[4:1],,3,4,2,5,1,6,8,7,1h[4:1],,3h[4:1],,5h[4:1],,7h[4:1],,1h[4:1],,
6h[4:1],,3,3,4,2,5,1,6,8,7h[4:1],,5,5,6,4,7,3,8,2,1h[4:1],,2,2,7,1,6,2,5,3,(250)4<8[8:3],,(220)7x>3[2:1],,(160)2x>8[3:2],,(120)5x<5[3:2],,(146)3x,,,,,,,,
(280){1}Ch[4:23],,,,,,
{8}6,6,4,5,3h[16:1],3h[16:1],6,4,4,5,4,6,3,3,4,3,5h[16:1],5h[16:1],4,6,6,3,5,5,
3,3,5,4,6h[16:1],6h[16:1],3,5,5,4,5,3,6,6,5,6,4h[16:1],4h[16:1],5,3,3,6,4w8[4:7],4,{1}4h[4:7],,
{8}2b/6h[4:1],,4,6,8,,2/5h[4:1],,4,5,{16}2x,1,8,7,{8}4<7[10:1],4,1-5[10:1],1,8,,8,B3,8,,8/B5,,
7/3h[4:1],,5,3,1,,7/4h[4:1],,5,4,6-1[10:1],6,2-4[10:1],2,7-3[10:1],,5-1[10:1],,1w5[8:1],,,,,,
7/3h[4:1],,5,3,31,,2/6h[4:1],,4,6,68,8,7-5[10:1],7,3-1[10:1],3,4h[4:1],,8,8,6,6,4,4,
4/6h[4:1],,1,6,36,,5/3h[4:1],,8,3,63,6,1,1,5,5,2/6x,2x/6,2/6x,2x/6,3/7x,3x/7,3/7x,3x/7,
8b-6[10:1]/4b,,3,3h[4:1],,4,24,,{16}5x,6,7,8,{8}3-5[10:1],3,1-5[12:1],1,2>5[12:1],2,8x,8x,8x,8x/E7,8x,8x,8x/B2,,
1-3[10:1]/7,,6,6h[4:1],,5,57,,8h,5,6,1h,4,3,5,5,2-8[10:1],2,6-4[10:1],6,2-6[10:1],2,8,8,
1x/7x-5[10:1],,3,3h[4:1],,4,41,,2,2,{16}8x,7,6,5,{8}2-8[10:1],2,4<7[10:1],4,3,,,26,2,8,48,,
1/2-4[12:1],,6,6h[4:1],,5,5/7v4[10:1],,3-8[10:1],,6,6-1[10:1],,5,5,,4/8x,4x/8,4/8x,4x/8,3/7x,3x/7,3/7x,3x/7,
{4}2xh[4:5]/6x,,A5,B4,E3,1hx[4:5],,B8,E7,E6,4xh[4:5],,E3,B1,A8,7xh[4:5],,E6,B4,E3,
2xh[2:1],1,8,7,6,5xh[4:5],4,3,2,1,{8}8x,8,6,5,7,4,8,3,1,1,3x,4,2,5,1,6,8,8,6p4[2:9],2p8[2:8],
(190){1}Ch[16:1],,,{4}Ch[1:4],,A8,A7,A6,B4,B3,B2,E8,E7,E6,A3,A2,A1,8,7,
{16}7-4[8:1],,4V61[6:1],,7,,3,,2-5-3[8:1],,,,1,8,7,,6<1[8:1],,2,,3-7[8:1],,4,,6-1[8:1],5,4,,2,,3,,
4-8[8:1],,8V25[6:1],,4,,7h[16:1],,7,,,6,8v3[10:1],7,2-5[10:1],,8-6[10:1],,2,,8,,4,,
7-3[8:1],,3>5[4:1],,7,,5,,4-7-5[8:1],,,,3,2,1,,8-4[8:1],,8,,6<1[8:1],,6,,2,3,4,,2h[8:1]/5,,5,,
3b,4,3,4,3,4,2b,3,2,3,2,3,1b,2,1,2,1,2,8b,1,8,1,8,1,
{16}7x-3[12:1],,5,5,7,,4x-8[12:1],,5,5,4,,1x-6[12:1],,3,3,1,,2x-5[12:1],,7,7,2,,
8xv3[12:1],,4,4,8,,1xq5[12:1],,6,6,1,,7xq3[12:1],,3,3,7,,1x>4[12:1],,7,7,1,,
7x-4[12:1],5,6,5,7,,2x-5[12:1],1,3,8,2,,7x-4[12:1],8,6,1,7,,1x-5[12:1],8,2,7,1,,7b,8,7,8,7,8,6b,1,6,1,6,1,5b,2,5,2,5,2,4b,3,4,3,4,3,
(200){32}5b>2[12:1],,,5,,,6,,,7,,,8<5[12:1],,,8,,,1,,,2,,,3>8[12:1],,,3,,,4,,,5,,,6-3[12:1],,,6,,,7,,,8,,,
1b-6[12:1],,,1,,,2,,,3,,,4-1[12:1],,,4,,,5,,,6,,,7b-4[12:1],,,7,,,8,,,1,,,2-7[12:1],,,2,,,3,,,4,,,
5b>4-2[12:1],,,5,,,6,,,7,,,8<7-5[12:1],,,8,,,1,,,2,,,3>2-8[12:1],,,3,,,4,,,5,,,6>5-3[12:1],,,6,,,7,,,,,,
{16}8,2,8,2,8,2,7,3,7,3,7,3,6,4,6,4,6,4,5w1[30#32:5],5,5h,5h,5h,5h,5h,5h,5h,5h,5h,5h,5h,5h,5h,5h,5h,5h,5h,5h,5h,5h,5h,5h,5h,5h,(280){1}5h,,
{8}3xh,6,5,6,4,6,5,6,4,6,5,6,4,6,5,6,1xh,6,5,6,4,6,5,6,4,6,5,6,4,6,5,6,2xh,5,4,5,3,5,4,5,3,5,4,5,3,5,4,5,3,5,4,6,3,5,4,6,3,5,4,6,3,5,4,4,
{8}6xh,3,4,3,5,3,4,3,5,3,4,3,5,3,4,3,8xh,3,4,3,5,3,4,3,1xh,3,4,3,5,3,4,3,8xh,4,5,3,6,4,5,3,6,4,5,3,6,4,5,3,6,3,5,4,6,3,5,4,6,3,5,4,6h[4:1]/3h[4:1],,,,
7-3[8:1],7/3-7[8:1],,5,5w1[12:1],,,,6-8[8:1],6,2-4[8:1],2,1w5[12:1],1,,,3,3h[8:1],{16}6,7,8,1,{8}5,5,6,6,3x/7,3/7x,3x/7,3/7x,4x/8,4/8x,4xh[8:1]/8h[8:1],,
2-6[8:1]/6,2/6-2[8:1],,4,4w8[12:1],,,,3,3,{16}7,6,5,4,1,2,3,4,{8}5/6h[8:1],,4,4>1[8:1],,7,7-3[8:1],,8,,5x/1,5/1x,5x/1,5/1x,6x/2,6/2x,6xh[8:1]/2h[8:1],,
3/7,3/7V51[4:1],,1,1w5[12:1],,,,3-1[8:1],3,7-3[8:1],7,5w1[12:1],5,,,6,6h[8:1],{16}2,3,4,5,{8}1,1,5,5,4x/8,4/8x,4x/8,4/8x,3x/7,3/7x,3xh[8:1]/7h[8:1],,
6/2,6/2V48[4:1],,8,8w4[12:1],,,,6,6,{16}3,2,1,8,4w8[12:1],,4,,,,,,{8}2,2,6,6,8,8,4,4,5x/1,5/1x,5x/1,5/1x,6x/2,6/2x,6x/2,6/2x,
{8}6h[1:1]/2b,,,E8,,,E7,,E6,,2h[1:1],,,E2,,,E3,,E4,,5h[1:1],,,E7,,,E8,,E1,,2h[1:1],,3,,4,,5,,6,,
{8}7,5,6,4,5,5h[24:7],{12}A2,A3,A4,A6,A7,A8,{8}2,4,3,5,4,4h[24:7],{12}A7,A6,A5,A3,A2,A1,{8}6,8,7,1,8,8h[24:7],{12}A1,A2,A3,A7,A6,A5,{8}4,4,8,8,{16}2,3,4,5,8,7,6,5,1,2,3,4,
{1}C,,,,,,
{4}4/2-4[8:1],5,6-8[8:1]/5,{8}1-5[8:1],1,C,,{16}6x,7,8,1,{8}4-2[10:1],4-6[10:1],,,8,,8,B6,8,,8/B4,,{8}1-4[10:1],,6,6,5-2[10:1],,
8,8,1,1,7,7,8-3[10:1],8,4-7[10:1],4,1-5[10:1],,8<1[2:1],,,,,,5,5,{16}8,7,6,5,{4}4/1-5[8:1],,{8}6,6,{16}8,1,2,
3,{8}5-7[8:1],5,1-3[8:1],1,
8,8,{16}7,6,5,,{8}2,2,4,4,3-5[12:1],3,7-1[12:1],7,2v5[12:1],2,6v1[12:1],6,4x,4,8x,8,3x-6[12:1],3,7x-4[12:1],,1x,1,1x,1,1/5x,1x/5,1/5x,1x/5,
2b/6b,37,4/8V26[6:1],,5,5,5,5,7x/4,6x/3,5x/2V83[6:1],,4,4,4,4,1x/5,2x/6,3x/7V51[6:1],,4,4,4,4,8x/3,83,7x,7,2x/6x,26,3x,3,1x/5x,15,6x,6,3x/7x,37,2x,2,
1x/8,1/8x,1x/8,1/8x,1x/8,1/8x,1x/8,1/8x,1h[16:5]/8h[15:2],
