&title=青色コントラスト
&artist=ヒバナ
&first=0
&des=Aoi
&lv_5=13
&inote_5=(129)
{1},
{8}6h[2:1]/4,,,,5h[2:1],,,,
{8}4h[2:1],,,,3h[2:1],,,,
{8}5h[2:1],,,,4w8[8:1],,4,,
{16}2xb/6bx,,,,3,,4/6h[4:1],,,,5,7,3-6[8:1],,3,,
{16}8<5[8:1],,8,,4,,2,,4/3,,3,5,4<7[8:1],,,,
{8}4>1[8:1]/3,,5<8[8:1]/4,,4/5>2[8:1],,5x/8x,,
{16}1/7,,8,1,8,,2,,7,5,6,4,6>3[8:1],,,,
{16}2h[4:1],,,,4,,,3-5[8:1],,3,,,6,,,,
{16}7h[4:1],,,,5,,,6-4[8:1],,6,,,3,,,,
{16}2h[4:1],,,,4,,,3-5[8:1],,3,,,6,,,,
{16}7h[4:1],,,,5,,,6-4[8:1],,6,,,3,,,,
{8}2pp4[16:3],,7,,6pp8[16:3],,3,,
{8}2>5[16:2],,6,,8<6[8:1]*v5[8:1],,,,
{8}3-6[8:1],,7-2[8:1],,4w8[8:1],,,,
{8}1-5[8:1]/8,,1-3[8:1]/7-3[8:1],,1>6[4:1]/7,,E5,,
{8}7h[8:6],,5,,,,5>3-8-4-2[8:6],,
{8},,E8,E7,E6,,,,
{8}2h[8:6],,4,,,,4-8-3<5<7[8:6],,
{8},,,,E2,E3,E4,,
{8}7/5,,2/4,,1-5[8:1]/8-4[8:1],,,,
{8}7/3h[4:1],,5h[4:1],,4<7[8:1],5,4v1[8:1],3,
{8}8,,2/6,2/6,3/7,3/7,{16}8-4[32:3],4,1,5,
{16},,2,5,3,6,1,,7v4[8:1]/8-4[8:1],,6,,7b/8b,,,,
{8}2>5[8:1]/5<8[8:1],,2/5,,1-5[8:1]/4,8,4/1,2h[4:1],
{16},,4,,3/5,,5,4,6,5,6,,7<4[32:3]/4>1[32:3],,,,
{8}7/4,,8-4[8:1]/5,1,8/5-2[8:1],,5/6,8,
{16}3b/7b,,4,6,3,4,1b,,2/8>3[8:1]*-4[8:1],,7,,8b,,,,
{16}5-7[8:1],,6,,4-8[8:1],,2,,3-5[8:1]*-7[8:1],,2,2,,,,,
{16}8-5[8:1],,7,1,8,,4,,2-6[8:1]*>6[8:1],,,,,,,,
{16}8,,8,,3/7,,3/7,,2,6,4<3[32:9],,5,,4b,,
{16},,6,,4/7,,4/7,,5,8,5h[8:1],,6,4,5,3,
{16}7b,,,,4/6,,3,,2-5[8:1]/5,,,,8x,,,,
{16}6,,4,5h[16:3],,,3,4,2-5[8:1],,7x,,8x,,,,
{16}4>1[8:1],,,,4/6,,,,7-4[8:1],,8,,1/7,,,,
{16}2b/5b,,4,3,5b,,4,6,2b,,8b,,3b/7b,,,,
{16}6/5,,5,7,4,,5,3,6-3[8:1],,2,,6,,,,
{16}2/4,,4,3,5,,4,6,5>3[8:1],,7,,5,,,,
{16}2h[8:1]/8h[8:1],,,5h[8:1]/7h[8:1],,,3/4,,{24}3,4,3,5,,,{16}4/5,,5/7h[8:2],,
{24},,,6,7,6,{32}7x,6x,7x,6x,7x,6x,7x,6x,{48}8xh[4:1],,,,,,{32}D7,D6,D5,D4,D3,D2,,,,,,{64},6xp3b[4:3],
{4},,,,
{8}2>6[4:2],,,,,,,,
{4}5pp1[4:3],,,,
{4}2-5<8-4[4:3],,,,
{4}5h[4:4],4,,4,
{4}3h[4:3],E5,E6,E7,
{8}4x/8x,,7,7,3,3,5,5,
{8}4/5,4,4/6,6,2/6,2/6,3/7,3/7,
{16}6b/2b,,3,5,3,,7b/4b,,6,5,6,,4,,2/4b-7[8:1],,
{8},1b,3b>2<1<8<7<6>5[4:3],,,,,,
{4},,Chf[4:2],,
{8}B2/B3/E3/D3/B7/B6/E7/D7,,{48}1b/8b,2/7,3/6,4/5,,,{8},2-5[8:1]/6,3,2/6>8[4:1],7,
{16}6/3,,,,4,,5,7,4,5,2,,1>4[8:1]/4<7[8:1],,,,
{8}1/4,,8-4[8:1]/5,7,8/3-6[8:1],2,3/5,7,
{16}8b/4b,,6,4,5,3,7b,,{32}1xw5[32:3],2,3,4,5,6,7,8,{4}Cf,
{16}1x-3[8:1]/8x,,7,,1/5-2[8:1],,6,,5/8-4[8:1]*<5[8:1],,7,7,,,,,
{16}2-4[8:1],,3,5,2,,5-1[8:1]*-7[8:1],,6,,,,,,8,,
{16}3,,3,,6/2,,6/2,,7,3,5>6[32:9],,4,,5b,,
{16},,3,,5/2,,5/2,,4,1,4h[32:5],,{32}2,1-5b[32:3],8,7,6,5,4,3,
{16}2,,,,4/6,,3,4,,,5,3,6-8[8:1],,4,,
{16}5-1[8:1]/6,,3,,5/6,,8,,7-4[8:1],3,6,4,7,,,,
{16}1-5[8:1],,2,4,1<6[8:1],,8,,1>4[8:1],,3,,1x/5x,,,,
{16}7,7,4,5,3,3,6,2h[16:3],,,4,4,3-5[32:3]/5<8[32:3],,,,
{1}5bpp4[4:7],,
{4}1h[1:2],,,,Ch[1:1],,,,
