&title=Ultimate Hyper Lv.100
&artist=DJ Genki
&first=0
&des=qszz♪PR
&lv_5=14+
&inote_5=(230)
{2},,2hb[2:1]/7hb[2:1],,
{32}1b/8b,27,36,4/5<4[8:22],,,,,
{4},,,A5/A6/D6/E6/B5/B6,,,,A1/A2/D2/E2/B1/B2
,,,,A7/A8/D8/E8/B7/B8/Ch[2:1],,,,
{32}2b,13,48,7/5<5[8:22],,,,,
{4},,,A1/A2/D2/E2/B1/B2,,,,A3/A4/D4/E4/B3/B4,,,,
6h[2:1],,
{16}8,1,2,3,4h[1:2],,,,
{4}7,7,7,7,6,6,6,
{16}8,7,6,5,4h[4:5]/2,,2,,2,,,,
{4}2,2,
{8}3,3,3,3,
{16}4,5,6,7,1-6[8:1],2,3,4,1b,,,,
{8}52,5,46,4,35,,
1b/7b,,48,4,53,5,46,,
37,4,53,6,
{16}4,5,4,5,3,6,3,6,
{12}1h,5,3h,8,4h,6,1h,5,3h,8-4[8:1],2h,6,
{4}8b,,6h[4:1]/3h[2:1],,
{32}7,8,1,2,3,4,5,6,7h[4:1],,,,,,,,2,3,4,5,,,,,6b/7b,,,,,,,,
{4}8b/2h[4:1],4,7h[4:1]/1b,
{8}4,8,4,6,6/2>4[8:1],,8/2,,
{16}7,5,7,5,
{4}8h[4:1],4,12,
{8}5,1,5,3,3/7<5[8:1],,1/7,,2b/4b,,
{32}27,6,5h[16:3],,,,,,1,2,3h[16:3],,,,,,
{8}6,,8,4,7,5,5>2[8:1]/6,,57,,
{16}5,,3,4,2h[8:3],,,,1,8,7,6,5/3,,,,2,4,2,4,
{4}B1,B6/E6,B4/E4/B3,
{8}8-6[8:1],4,8-2[8:1],3,8-6[8:1],5,
8-2[8:1],3,8-6[8:1],5,8-2[8:1],3,8-6[8:1],5,8,3,
{16}1,8,1,8,
{8}1-7[8:1],5,1-3[8:1],4,1-7[8:1],6,
1-3[8:1],4,1-7[8:1],6,1,4,
{16}15,26,37,,4bx-2[8:1],8bx,4bx,8bx,
{8}4bx,6bx,1bx/5bx,,7b/8b-2[8:1]*-6[8:1],,8b,,
3b/4b>1[8:1]*<7[8:1],,4b,,3b/5b,,
4b/7b,4b/7b,5b/2b-4[8:1]*-8[8:1],,2b-6[8:1],,2b,,
{16}7,5,7,5,8,,,,4,6,4,6,3,5,3,5,1b,,,,
{4}6h[1:1],1,1,
{16}1,2,3,,
{4}3h[1:1],5,5,
{16}5,6,7,,
{4}7V53[4:1],3V17[4:1],7V53[4:1],3,
1>4[4:1],4<7[4:1],7>2[4:1],2,
{16}5,3,5,3,6,4,6,4,7,5,7,5,8b,,,,
4,6,4,6,3,5,3,5,2,4,2,4,1b,,,,
{32}1h[8:1]/7,6,5,,,,,,8h[8:1]/2,3,4,,,,,,
1h[8:1]/7,6,5,,,,,,8h[8:1]/2,3,4,,,,,,
{16}5,4,3,2,18,7,6,5,43,,,,2b/7b,,,,
3,8,3,8,3,8,3,8,4,7,4,7,4,7,4,7,5,8,5,8,5,8,5,8,
{32}4,3,2,1,8,7,6,5,4/8h[8:1],,,,,,,,
{16}4,8,4,8,4,8,4,8,5,7,5,7,5,7,5,7,
{32}4,3,2,1,8,7,6,5,4/7h[8:1],,,,,,,,
{16}3b/5b,,,,2b/4b,,,,
5,1,5,1,5,1,5,1,6,2,7,3,8h[8:1],,,,
4,7,4,7,4,7,4,7,5,8,5,8,5,8,5,8,
5,4,3,2,6,5,4,3,7,6,5,4,8,7,6,5,
3,4,3,4,
{4}2-4[8:1]*-8[8:1],2b,2b/6b,
{16}1,5,1,5,1,5,1,5,2,4,2,4,2,4,2,4,3,3,3,3,3,3,3,3,
{32}3,4,5,6,7,8,1,2,3/6h[8:1],,,,,,,,
{16}5,1,5,1,5,1,5,1,4,2,4,2,4,2,4,2,
{32}5,6,7,8,1,2,3,4,5/1h[8:1],,,,,,,,
{16}6b/4b,,,,7b/5b,,,,
4,8,4,8,4,8,4,8,3,7,2,6,1h[8:1],,,,
6,2,6,2,6,2,6,2,5,3,5,3,5,3,5,3,
4,5,6,7,3,4,5,6,2,3,4,5,1,2,3,4,
6,5,6,5,7h[4:1],,,,
{16}5,4,3,2,
{32}16,5,4,3,2,1,8,7,
{1}6b/2b>2[8:22],A5/A6/D6/E6/B5/B6,A3/A4/D4/E4/B3/B4,
7h[2:1],
{32}1b,28,37,46,5s1[8:29],,,,
{4},,,
{1}B7,B3,
{4}C,,5-1b[8:1],,
2,2,2,2,3,3,3,
{16}1,2,3,4,
{8}5h[1:1]/7,7,7,,7,,7,,6,6,6,6,
{16}5,4,3,2,8-3[8:1],7,6,5,
{8}8b,,45,3,5-1[8:1]/6-2[8:1],7,56,,
8b,,54,6,4-8[8:1]/3-7[8:1],2,43,,
{16}1,6,1,6,2,5,2,5,
{24}3,4,5,6,7,8,1,2,3,4,5,,
{12}8h,4,6h,1,5h,3,8h,4,6h,1-5[8:1],7h,3,
{4}1b,3h[4:1],5h[4:1],7h[4:1],
E2,B3/B4,B5/B6/E6,
{32}28,37,46,5,,,,,
{8}2h[8:11]/8b,,6,6,,5,,8,,7,7,7,,
{16}2,,6,3,5,4,
{8}5h[8:11],,2,2,,4,,1,,2,2,2,,
{16}6,,4,5,3,6,
{8}2h[8:11],,5,5,,4,,3,,1,8,7,,
{16}3,,7,4,6,5,
{8}7,2,8,3,5,6,4,3,6h[4:1],,2,,
1-5[8:1]/8-4[8:1],27,18,,
{4}6,46,35,2,46,7,45,
{16}4,5,4,5,
{8}3,35,46,,25,,16,,
46,6,37,3,
{16}1-5[8:1],8,2,7,1b,,,,
7,3,6,3,7,3,6,3,8,3,5,3,8b,,,,
2,7,3,7,2,7,3,7,1-5[8:1],7,4,7,1b,,,,
{24}6,4,6,4,,,3,5,3,5,,,
2,3,4,8,7,6,5/1h[4:1],,,,,,
{8}E8,,B5/B6,,B3/B4/E4,,
{32}17,26,35,4,,,,,
{8}1b-5[8:1]/7b,,12,3,,4-8[8:1],,6-2[8:1],,
3,4,5>1[4:1],,1,
{16}1,8,7,6,
{8}5V31[4:1],,1V75[4:1],1,,5,,4-8[8:1],,34,2,1>5[4:1],,
{16}5,,5,6,7,8,
{8}1>5[4:1],,5<1[4:1],5,,1,,2-6[8:1],,23,4,5,,7,
{16}4,6,3,5,2,,2,,5,,5,,2,4,2,,1,,1,,7,5,7,,8,,8,,
{24}7,6,5,1,2,3,4/8b,,,,,,
{8}8-4[8:1]/2,,87,6,,5-8[4:1],,8V26[8:3],,2,3,4,,
{16}5,,5<8[8:1],4,3,2,
{8}1-6[8:1]/5,,2,3,,4V28[4:1],,8>3[4:1],
,7,6,5,6,6,7,7,
{16}1,8,2,7,1,8,3,6,1-5[8:1],8,2,7,1b,,,,
7,3,6,3,7,3,6,3,8-4[8:1],2,5,2,8b,,,,
2,5,2h[16:1],,7,4,7h[16:1],,
3,6,3,6,4,5,3,6,
{32}1b,B1,C,B5,,,,,7h[4:1],,,,,,,,
1,26,35,4,,,,,1b/7b,,,,,,,,
{16}28,,,,8,1,7h[8:1],,1-5[8:1],,8-6[8:1],,1,,8,,
{8}2-7[8:1],2,6-1[8:1],6,4>8[4:1],4,
{16}8,7,6,5,
{8}4-8[8:1],4,2-5[8:1],2,7-3[8:1],7,1,1,
{16}2,4,2,4,3,5,3,5,4,6,4,6,1b,,,,
25,,,,3,4,2h[8:1],,5-1[8:1],,2-5[8:1],,5,,2,,
{8}8-6[8:1],8-2[8:1],8-5[8:1],8-3[8:1],8-4[8:1],8,8b,,
{16}3,5,3,5,2,6,2,6,1,7,1,7,2,8,2,8,
{4}1-5[8:1],1/8<5[8:1]*>3[8:1],8w4[8:1],8b,
{16}7,1,7,,3,5,3,,6,4,6,,2,4,2,,
6,5,7,,2,1,3,,7,8,6,,2b/7b,,,,
3,4,3,,5,4,5,,2,4,2,,6,4,6,,
3/5h[8:1],,3,,4h[8:1]/6,,6,,4,5,4,5,3b,,,,
2,6,2,6,1,5,1,5,2-4[8:1],4,2,4,2b,,,,
6,2,6,2,7,3,7,3,6-8[8:1],4,6,4,6b,,,,
{24}2,1,2,,,,7,8,7,,,,4,5,4,5,4,5,
{4}4h[4:1],E8,B3/E4,B6/E6/B5,1b/8b,
{16}6h[8:1]/2h[8:1],,,,3,4,2,4,3,,,,7,8,6,8,7-3[8:1],,,,
37,,2-6[8:1],,,,12,,8,,,,
4h[8:1]/7h[8:1],,,,6,5,7,5,6,,,,2,1,3,1,2-6[8:1],,,,
62,,7-4[8:1],,,,87,,1,,,,
6h[8:1]/2h[8:1],,,,3,4,3,4,2,,,,7,8,7,8,6-2[8:1],,,,
62,,4-8[8:1],,,,45,,6,,,,
3h[8:1]/7h[8:1],,,,6,5,6,5,7,,,,2,1,2,1,3-7[8:1],,,,
37,,5-1[8:1],,,,54,,3,,,,
{4}2h[1:1],8,7,7,6-2[8:1],
{8}62,3-8[8:1],,34,5,,
{4}7h[4:3],1,2,
{16}2,,3,5,3,,6,4,6,,45,,6,5,6,,3,4,3,,
{8}5/2h[8:1],5,4/7h[8:1],4,6/2h[8:1],6,
{16}4,5,4,5,2,,8,3,6,,1,5,1-5[8:1],5,1,5,1b,,,,
{8}37,,17,35,,26,,17,
{32}1b/7,26,35,4,,,,,
{8}2,
{32}2/8b,37,46,5,,,,,8b,17,26,35,
{16}4,,28,,1w5b[8:1],1,1,1,
{64}1,Cf/B1/B2/B3/B4/B5/B6/B7/B8,
