&title=忍者
&artist=周杰伦
&first=0.15
&lv_5=13+
&des_5=-NICOLABULA-
&inote_5=
(106){4},4/5h[8:1],5h[8:1]/E3,{8}5/A1,6/A2,
7/A3,8/A4,{4}8/4h[8:1],4h[8:1]/E7,{8}4/A8,3/A7,
2/A6,1/A5,{4}1/5h[8:1],5h[8:1]/E3,{8}5/A1,6/A2,
7/A3,8/A4,{4}8/4h[8:1],4h[8:1]/E7,{8}4/8,3/5,
6/2,1/5h[8:1],{16}3,3h[16:1],6,6h[16:1],{8}1b,{16}6-1[16:1],4,{8}4h[8:1],{16}6,3,
3h[16:1],8,8h[16:1],3,5h[16:1],4,6h[16:1],5,7h[16:1],8,6h[16:1],1,5h[16:1],3,4-1[16:1],3,
5,5,{8}4,{16}6,6h[16:1],1,1h[16:1],8,8h[16:1],4,4h[16:1],6,6h[16:1],5,5h[16:1],
{8}8,{16}6x,6h[16:1],{8}5,{16}3x,3h[16:1],{8}4,{16}7x,7h[16:1],{8}8,{16}2x,2h[16:1],
{8}1<4[16:3],8/2,1/3,2,{16}2,4x,{8}3,{16}3,4,{8}2,
{16}4>7[16:3],3,{8}5,4/6,6,{16}6,5,{8}5h[8:1],{16}7,5,{8}6,
{16}5<2[16:3],4,{8}6,5/3pp4[16:3],3,{16}3,{8},{16}7,{8}7h[8:1],5,
{16}6,6h[16:1],8,8h[16:1],1,1h[16:1],3,3h[16:1],4,4h[16:1],5,5h[16:1],6,6h[16:1],8,8h[16:1],
{8}1,1,{4}4h[4:1]/1-3p5[4:1],,4-2q8[4:1],
,1<5[4:1],5>1[4:1],1V75[4:1],
5V31[4:1],8-6q4[4:1],,5-7p1[4:1],
,8<4[4:1],4>8[4:1],8w4[16:1],
A8f/D8/A7/D1/A1,{8}6/4,{16}5,5,{8}4h[8:1],7,6/5h[8:1],8-5[16:1],
5/4h[8:1],8b,2,{16}3,3,{8}4h[8:1],2,4/3h[8:1],1-4[16:1],
4/5h[8:1],1b,7,{16}6,6,{8}5h[8:1],7,{16}6,6h[16:1],4-8[8:1],4,
{8}5h[8:1],4pp6[8:3]*qq2[8:3],{4},,{8},A7/A2/B2/B7,
A6/E6/A3/E4,A4/A5/E5h[2:1],{64}E6,E7,{32}A7,{16},{64}B5,B7,{32}D8,{16},{64}B4,B2,{32}D2,{16},{64}E4,E3,{32}A2,{8},{16}7,8w4[16:1],2,
{8}1,8,{16}7,1,{8}8w4[16:1],7/1,8,{16},2,1,7,
{8}8h[8:1],E5h[2:1],{64}E6,E7,{32}A7,{16},{64}B5,B7,{32}D8,{16},{64}B4,B2,{32}D2,{16},{64}E4,E3,{32}A2,{8},{16}7,8w4[16:1],2,
{8}1,8,{16}7,1,{8}1h[16:3],{16},6<3[4:1],5,3,{4}4h[8:1],
E5h[8:5],{64}E4,E3,{32}A2,{16},{64}B4,B2,{32}D2,{16},{64}B5,B7,{32}D8,{16},{64}E6,E7,{32}A7,{8},{16}7,8w4[16:1],2,
{8}1,8,{16}7,1,{8}8w4[16:1],7/1,8,{16},7,8,2,
{8}1h[8:1],E5h[2:1],{64}E4,E3,{32}A2,{16},{64}B4,B2,{32}D2,{16},{64}B5,B7,{32}D8,{16},{64}E6,E7,{32}A7,{8},{16}2,1w5[16:1],7,
{8}8,1,{16}2,8,{8}8h[16:3],{16},3>6q4b[16:7],4,6,{4}5h[8:1],
{1}B5h[4:1],
{2},{8}E7f,{32}B3,E4,{8},{16}B2,{8}B7,
{32}B5,{16},{32}C,{8},{16}E7,B3,{8}B7,E4,{16}E6,B5,{32},B3,{16}B4,{8}B6,
,B6,{32}E2f,{16},{32}E7,{8}B7,{4},,,{8}5/7h[8:1],
5h[8:1],4h[8:1],2h[8:1],{4}8<3[4:1],
{8}8/3,2,{4}1>6[4:1],{8}6/1,7,{4}8V63[4:1],
,{8}2h[8:1],4h[8:1],5h[8:1],7h[8:1],{4}8>5[4:1],
{8}6/8,7,{4}8<3[4:1],{8}8/3,2,1,2/4,
3/5,4/6h[8:1],{16}2,3h[16:1],7,6h[16:1],{8}1b,{16}6-1[16:1],3,{8}4h[8:1],{16}6,2,
3h[16:1],8,7h[16:1],3,4h[16:1],6,5h[16:1],4,3h[16:1],5,6h[16:1],1,2h[16:1],7,8-5[16:1],3,
4h[16:1],1,{8}8,{16}2,3h[16:1],7,8h[16:1],2,1h[16:1],6,5h[16:1],2-5[16:1],3h[16:1],5,6h[16:1],
{8}2,{16}6,6h[16:1],{8}5,{16}3,3h[16:1],{8}4,{16}6,7h[16:1],{8}8,{16}3,2h[16:1],
{8}1-4[8:1],8/2,1/7,6,{16}3/5h[16:1],4,{8}4h[8:1],{16}6,6h[16:1],{8}5h[8:1],
{16}4-7[8:1],4,{8}3,4/2,2,{16}2/8h[16:1],1,{8}1h[8:1],{16}7,7h[16:1],{8}8h[8:1],
{16}1-6[8:1],1,{8}2,1/3,4,{16}5/3h[16:3],{8},{16}4,{8}4h[8:1],5,
{16}6,6h[16:1],8,8h[16:1],1,1h[16:1],3,3h[16:1],4,4h[16:1],5,5h[16:1],6,6h[16:1],8,8h[16:1],
{8}1,1,{4}4h[4:1]/1-3p5[4:1],,4-2q8[4:1],
,1<5[4:1],5>1[4:1],1V75[4:1],
5V31[4:1],8-6q4[4:1],,5-7p1[4:1],
,8<4[4:1],4>8[4:1],8w4[16:1],
A8f/D8/A7/D1/A1,{8}6/4,{16}6,5,{8}4h[8:1]/7-4[8:1],8,7,1-4[16:1],
3/5h[8:1],1b,3/5,{16}3,4,{8}5h[8:1]/2-5[8:1],1,2,8-5[16:1],
6/4h[8:1],8b,6/4,{16}6,5,{8}7/4h[8:1],7,{16}7,6h[16:1],4-8[8:1],3h[16:1],
{8}5h[8:1],4pp6[8:3]*qq2[8:3],{4},,{8},A7/A2/B2/B7,
A6/E6/A3/E4,A4/A5/E5h[2:1],{64}E6,E7,{32}A7,{16},{64}B5,B7,{32}D8,{16},{64}B4,B2,{32}D2,{16},{64}E4,E3,{32}A2,{8},{16}7,8w4[16:1],2,
{8}1,8,{16}7,1,{8}8w4[16:1],7/1,8,{16},2,1,7,
{8}8h[8:1],E5h[2:1],{64}E6,E7,{32}A7,{16},{64}B5,B7,{32}D8,{16},{64}B4,B2,{32}D2,{16},{64}E4,E3,{32}A2,{8},{16}7,8w4[16:1],2,
{8}1,8,{16}7,1,{8}1h[16:3],{16},6<3[16:5],5,3,{4}4h[8:1],
E5h[8:5],{64}E4,E3,{32}A2,{16},{64}B4,B2,{32}D2,{16},{64}B5,B7,{32}D8,{16},{64}E6,E7,{32}A7,{8},{16}7,8w4[16:1],3,
{8}2,8,{16}7,1,{8}8w4[16:1],7/1,8,{16},6,7,3,
{8}2h[8:1],E5h[2:1],{64}E4,E3,{32}A2,{16},{64}B4,B2,{32}D2,{16},{64}B5,B7,{32}D8,{16},{64}E6,E7,{32}A7,{8},{16}2,1w5[16:1],6,
{8}7,1,{16}2,8,{8}8h[16:3],{16},3>6[16:5],4,6,{4}5h[8:1],
E5h[8:5],{64}E6,E7,{32}A7,{16},{64}B5,B7,{32}D8,{16},{64}B4,B2,{32}D2,{16},{64}E4,E3,{32}A2,{8},{16}2,1w5[16:1],6,
{8}7,1,{16}7,1,{8}8w4[16:1],7/1,8,{16},3,2,6,
{8}7h[8:1],E5h[2:1],{64}E6,E7,{32}A7,{16},{64}B5,B7,{32}D8,{16},{64}B4,B2,{32}D2,{16},{64}E4,E3,{32}A2,{8},{16}7,8w4[16:1],4,
{8}3,8,{16}7,1,{8}1h[16:3],{16},6<3[16:5],5,3,{4}4h[8:1],
E5h[8:5],{64}E4,E3,{32}A2,{16},{64}B4,B2,{32}D2,{16},{64}B5,B7,{32}D8,{16},{64}E6,E7,{32}A7,{8},{16}2,1,6,
{8}5h[4:1],E5h[2:1],{64}E6,E7,{32}A7,{16},{64}B5,B7,{32}D8,{16},{64}B4,B2,{32}D2,{16},{64}E4,E3,{32}A2,{8},{16}7,8,3,
{8}4h[8:1],E5h[2:1],{64}E4,E3,{32}A2,{16},{64}B4,B2,{32}D2,{16},{64}B5,B7,{32}D8,{16},{64}E6,E7,{32}A7,{8},{16}2,1,6,
{8}5h[8:1],E5h[2:1],{64}E6,E7,{32}A7,{16},{64}B5,B7,{32}D8,{16},{64}B4,B2,{32}D2,{16},{64}E4,E3,{32}A2,{16},,,{8}Ch[16:3],
{16},{32}B1,B2,B3,E5,E6,E7,E8,E1,A1,D2,A2,D3,A3,D4,A4,D5,A5,D6,A6,D7,A7,D8,A8,D1,A1,D2,{8}A2,
