&title=0次元恋愛感情
&artist=LeaF
&first=0
&des=CupLid
&des_5=
&lv_5=13+
&inote_5=(130){5},{16},,,,,,1b/5b,7b/3b,,,,5,
4,6,3,4,2,6,5,7,{8}8/1,5h[8:1]/2h[8:1],,7h[8:1]/4h[8:1],
,1/2h[8:1],4,8/7h[8:1],5,6/2q6[8:1],1,2/7<4[8:1],
8,1>4[8:1]/7pp8[8:1],8<5[8:1],1,,4-2[8:1],4-6[8:1],4-1[8:1],
4-7[8:1],4,4,8b,{24},,,6/2,,3,{12}4,{24}4,5,,5,
{8}6,{24}7/3,,6,{12}5,{24}5,4,,4,{8}3,1p5[8:1],3/4,1/2,
4,8q4[8:1],6/5,8/7qq3[4:1],5,1,,2pp6[4:1],
,8,,7pp5[4:1],,4,,2qq4[4:1],
,5,,7<4[8:1],,8/7,3,8/2>5[8:1],
,2/1,6,{16}7/8,8/7,,6/1,{8}2,{32}3,4,{16}3,,6/5,
,7/4,{8}4/7,3/8h[8:1],{24}2h[12:1],,4h[12:1],,6h[12:1],,{8}8pp2[8:1],2<6[8:1],8,
4,3pp5[8:1],5>1[8:1],3,7,8,{16}2,2,,6,
,4,,7,{8}7,1,,2/8-6[8:1],7,8/1-5[8:1],
3,8q4[8:1]/1>4[8:1],7,8/1,,6/4-2[8:1],3,4/5-1[8:1],
7,5/4p8[8:1],3,4/5,6,{24}7,8,7,{16}8,6,{8}5h[8:1]/3h[8:1],
,1b/7b,3,5h[8:1]/4h[8:1],,8h[8:1]/2h[8:1],{16},3/7,{8}6/4,
7/1,3b/2,4/5b,7b/6,,8h[8:1]/1h[8:1],,3/4,
5/6,{24}7/1,,6,,5,,{8}4/2,4/5,{24}3,4,2,6,5,7,1h[16:1],{48},{16}6h[16:1],
3h[16:1],4h[16:1],{8}8b,{16},,2h[16:1],6h[16:1],{32}3,5,3,5,{24}2,,2,,2,{48},,{16}6,6,
{32}7,8,{16}7,1,1h[8:1],{32},,4,3,{24}5h[12:1],,3h[12:1],,7h[12:1],{96},,,,{32}2,1,2,1,{24}2,8,3,6h[12:1],,2h[12:1],
,4h[12:1],,{8}8bw4[8:1],,,,7h[8:3]/8h[4:1],,,,2h[8:3]/1h[4:1],
,,,6h[8:3]/5h[4:1],,,,3h[8:3]/4h[4:1],
,,,7h[8:1]/8h[8:1],{24},,6,5,,7,
{8}8,2h[8:1]/1h[8:1],{24},,3,4,,2,{8}1,8/7h[8:1],3h[8:1],{24}6,,6,
{12}5,{24}5,4,,4,{8}3,2/1>4[8:1],8/7,8/1b,{12}6,{24}6,5-1[8:1],,5,
{8}6,5/4,{12}2,{24}2,8<5[8:1],,8,{8}2,8/1,{12}3,{24}3,4-8[8:1],,4,
{8}3,4/5,{12}7,{24}7,1>4[8:1],,1,{8}7,1/8-4[8:1],,8<5[8:1]/1V75[8:1],
,8/1,,1>4[8:1]/8V24[8:1],,1/8,,8<5[8:1]/2>5[8:1],
,8/2,,,,7h[8:7]/3h[8:7],,,,,,,,8b/2b,
{16}4h[8:1]/3h[8:1],,,7h[8:1]/5h[8:1],
,,{8}1/2h[8:1],{32}8,7,6,5,{8}3/4V68[8:1]*V28[8:1],{24},,,,,,,,,6b/2b,,1,
{12}7,{24}7,4,,4,6,5,6,3,4,3,6,5,7,3,,3,{12}1,{24}1,8,,8,
{12}6,{24}6,2,{48},{16}4,3,5,{32}4,6,4,6,{16}3,5,1h[16:1],4h[16:1],{8}3h[16:1],{16}8h[16:1],1h[16:1],
6h[16:1],5h[16:1],{24}7,,7,{12}5,{24}5,4,,4,{12}2,{24}2,{96}7,,,6,,,{32}5,4,3,2,1,8,4,5,6,7,
8,1,2,3,{8}4-1[12:1]*-7[12:1],5/3,4,{24},,,8-4[12:1],1,8,1,8,1,8b,,,{8}1h[16:1],
6/3,8h[16:1],6/3,4h[16:1],2/7,5h[16:1],7/3,
4h[16:1],6/2,5h[16:1],3/7,4h[16:1],1/2h[8:1],5h[16:1],8/7h[8:1],
4h[16:1],1/2h[8:1],5h[16:1],8/7h[8:1],4h[16:1],2h[8:3]/6h[8:3],{24},,,,,,,,2,
4,,4,{12}5,{24}5,7V13[8:1],,,{8}3V57[8:1],7,,2>5[8:1],
1,8<5[8:1]/2qq1[8:1],1>4[8:1],8/2,,7h[8:1],8,4/2h[8:1],
1,7/6,5/4,3/2,1/7,6,2b/4,8b/6,
4/6,2b/4,5/7b,5/1bs5[2:1],7b/3b,1h[2:1],,,,,2b/8b,
6b/4b,,7h[8:1]/3h[8:1],,5/6h,
4/3h,5/7h,4/2h,1h/8h,6h/3h,{24}5h[12:1],,3h[12:1],,1h[12:1],,4h[12:1],,6h[12:1],
,8h[24:5],,,,,{8}4-8[16:1],4b,,1>8[2:7],,8h[8:1],
,,,7h[8:1],,,,6h[8:1],
,,,5h[8:1],,,,4h[8:1],
,,,3h[8:1],,,,2h[8:1],
,,,1<6[8:1],4/3h[4:1],1,,7/8>3[8:1],
5/6h[4:1],8,{24},,,2/1V75[8:1],,4,{8}3h[4:1],1,,7/8V24[8:1],
5/6h[4:1],8,,2/1<4[8:1],4/3h[4:1],1,{24},,,7/8>5[8:1],,6,
{12}5,{24}7,8,,,,,,2/1-5[12:1],,3,{12}4,{24}2,1,,,{8}3,{16}8/7,7/8,
,2/1,{8}2/1,{32}3,4,3,4,,,{16}2/6,,,{8}3bqq4[2:1]/5bpp4[2:1],,,,,,,,6/5,
{16}3/4,3/4,,6,
,7/5,,4/3,{8}5/2,{16}6/5,7/4,,,3/4,2,5,3/4,2,6,
5/4,3,7,6/5,4,7,{8}8h[8:1]/3h[8:1],{32},,,,2,1,2,1,2,1,2,1,{16}3,8,
{8}7/4,5/6h[8:1],8,4/3h[8:1],1,{24}4,6,4,6,4,{48}6,,,,,3/5,,,{16}3,
2/6,{8}1b/7h[4:1],{16},,3,2,{32}1/8,7,6,5,{24}4/3,,2/1,,6/5,{48},,{16}8/7,6,
5,6,{32}4,3,{16}2h[16:3],{48},,,8,7,6,{24}5,,3,,6,{96},,,,{32}2,3,4,5,8,7,6,5,{24}4/3,,1/6,
,7,8,7h[24:1],,6h[24:1]/4h[24:1],,3,5,4h[16:1],{48},{16}6h[16:1],2h[16:1],8h[16:1],{32}1b,2,3,4,{16}5/6,7,{32}8/1b,2,3,4,
{16}5/6,7,{32}8/1b,2,3,4,8,7,6,5,{24}2b/4,,1/3b,,6b/8,,{8}1w5[12:1]*s5[12:1],,1b>8[2:3]*<2[2:3],
E
