&title=秋绪
&artist=塞壬唱片-MSR; タイナカ彩智
&first=0.33
&des=hazz
&lv_5=13+
&inote_5=(138)
(197)
{32},,,,,,,,,,,,,,,,
1x/7x,2x,3x,,,,,,
8x,7x,6x,,,,,,
2x,3x,4x,,,,,,
7x,6x,5x,,,,,,
2x,E3,B3,B4,E5,,,
6x,E7,B7,B8,E1,
(138)
{8}
,4x,
{16}
8x,4x,8x,4x,
{24}
8x,4x,8x,4x,
8x,4x,8x,4x,
8x,4h[4:1],,,
{8}
,7b,,5h[4:1]/2,,4,,1/2b-4[8:1],8,2,5,7-5[8:1]/8,1,7,4,3-6[8:1],6-3[8:1],3,7pp4[8:3],,7,,2,2-8[8:1]*-4[8:1],,,,7V13[4:1]*-5[8:1],,,,7x-5[8:1],4-2[8:1],7x,4,,
1>4[4:1],4,4qq1[8:3],5,,6,,7-5[8:1],8,7,2,4-1[8:1]/3,,54,8,,7/8-3[8:1],6,8,7pp4[4:1],,4b,,3pp1[4:1],,6b,,8-5[8:1],,8,2,
{16}
7,5,,2,4,,35,,
{16}
7,,64,,5,,3,,2-5[8:1]/4,,2,1,2,,6V48[4:1],,,,6,,B3/B2,,,,
{16}
2,4,,7,5,,64,,
{16}
2,,35,,4,,6,,7-4[8:1]/5,,7,8,7,,3V51[4:1],,,,3,,B6,,,,
{16}
7,5,,2,4,,
3,5,4,5,4,5,3,5,4,5,7,5,4,5,
1b>5[8:3],,,,6,,5qq1[2:1],,,,7h[4:1],,,,,,8>5[8:3],,7,,6,,5qq2[2:1],,,,7h[4:1],,,,,,
8<4[8:3],,,,3,,4pp8[2:1],,,,2h[4:1],,,,,,1<4[8:3],,2,,3,,4pp7[2:1],,,,2h[4:1],,,,,,
1V35[8:3],,,,6,,5-1[16:3],,,,7h[4:1],,,,,,1,,7/8-3[8:1],,6,,5q1[16:3],,,,4h[4:1],,,,,,
8V64[8:3],,,,3,,4-8[16:3],,,,2h[4:1],,,,,,8,,2/1<6[16:3],,3,,4-1[8:1],,,,4,,,,7xb/8xb,,1b/6b,,2b/5b,,4x-1[16:3]/3xh[8:1],,,,,,3x,,3x-6[16:3],,,,,,,,7b,,,,6/5-8[16:3],,4,,
{8},,4-1[16:3],,1,,
8,7v5[8:1]/1v3[8:1],,,,
4,7-4[8:1],,8,8-3[8:1],,5,
5v8[8:1]*v2[8:1],,5b,,,2,1<4[4:1],,
12,,3qq4[16:5],,5,6,7,,
8-4[8:1]/5,,8/3-1[8:1],,3,5-7[8:1],,5,
8-4[8:1],,1,,53,2,7,64,53
,
{16}
2b,4,3,4,2b,5,
4b,5,4h,7h,5b,6,
5b,7,4b,5,2bh[8:3],,,,,,
{8}
4,,7h[4:1]/3,,5v2[8:1],,
{16}
65,,5,,4v7[8:1],,3,,
34,,4,,5,,6,,
7-5[8:1],,4,4,7,,
3,,43,,2,,
2-5[8:1]/1,,7,,
{8}
7-1[8:1]*-5[8:1],,,,4-6[8:1],2-4[8:1],,,5x-7[8:1],2-4[8:1],5x,2,,
8<5[4:1],5,5pp8[8:3],4,,3,,2-4[8:1],1,2,7,5-8[8:1]/6,,45,1,,2/1-6[8:1],3,1,2qq5[4:1],,5b,,6qq8[4:1],,3b,,1-5[8:1],,1<6[8:1],,
{48}
1>4[8:1]/5x,D1,A8,D8,A7,D7,A6,,,,,,1/5x,D2,A2,D3,A3,D4,A4,,,,,,
{16}
7b-4[8:1],,1,1,7,,3,,2-5[8:1],,8,8,2,,6,,6-3[8:1],,3-6[8:1],,6,,2qq5[8:3],,,,2,,,,7,,7-1[8:1]*-5[8:1],,,,,,,,
{8}
2V86[4:1]*-4[8:1],,,,5x-3[8:1],7-5[8:1],5x,7,,
1>4[4:1],4,4qq1[8:3],5,,6,,7-5[8:1],8,7,2,4-1[8:1]/3,,54,8,,2/1-6[8:1],3,1,4b-7[8:1]*-2[8:1],,4-1[8:1],,5b-7[8:1],,5-1[8:1]*v2[8:1],,5b,,38,6,
{16}
2,4,,7,5,,64,,
{16}
2,,35,,4,,6,,7-4[8:1]/5,,7,8,7,,3V51[4:1],,7,,3,,B6,,8,,
7,5,,2,4,,35,,
{16}
7,,64,,5,,3,,2-5[8:1]/4,,2,1,2,,6v1[8:1],,2-5[8:1],,6,,2,,7,,
{16}
2,4,,7,5,,16,,
{16}
2,,35,,6,4,6,,7-4[8:1]/5,,7,8,7,,3v8[8:1],,7-4[8:1],,3,,7,,2,,
7,5,,2,4,,38,,
{16}
7,,64,,3,5,3,,2-5[8:1]/4,,2,1,2,,6,,7,5,6,5,7,4,5,4,5,2,4,3,4,,
{32}
1,2,3,,8,,,,,
(195)
{4}
8b-4[8:1]/2b,8b/1b-5[8:1],7b/1b,
(195)
{16}
8b,7,6,5,1b,2,3,4,
(138)
{32}
8b,7,6,5,4,3,2,1,8,7,6,5,4,3,2,1,8,7,6,5,4,3,2,1,8,7,6,5,4,3,2,1,8,7,6,5,4,3,2,1,8,7,6,5,4,3,2,1,8,7,6,5,4,3/E2f,,,,E
