&title=白ゆきの独白
&artist=n-buna
&first=0
&des=Holinality
&clock_count=4
&lv_5=11+
&inote_5=(65)
{1}
,
{8}
3h[4:1],6,5h[8:1],4,,,6h[4:1],4,
2h[8:1],8,,1-4[8:2],1,,,6>3[4:1],
,6/2,2h[8:3],,,B6/B5/C,,,
6h[4:1],8-4[8:2],3h[8:1],8b,,,2h[4:1],5-1[8:2],
7h[8:1],5b,,,7<4[8:2],3>8[8:2],7,3q5[8:4],
,3xb,2h[4:1],,,
{16}
2,,6,4,
5,3,
{16}
5h[8:3],,,,,,4h[8:3],,
,,,,
6,3,5<8[16:4],2,
4,2,5x,1,2,3,4,7,
3,6,4>1[16:4],7,
5,7,4x,8,7,6,5,2,
7,2,8<5[16:4],3,
1,3,8x,4,3,2,1,6,
2,7,1q3[16:4],6,
,,1x,,,,6,4,
5-8[16:8],3,4,3,2,3,4,3,
2,3,5x,3,
4-1[16:8],6,5,6,7,6,5,6,
7,6,4x,6,
5-8[16:8],3,4,3,2,3,4,3,
2,3,5x,3,
3,,,64,
,,35,,17,,28,,
6,3,5<8[16:4],2,
4,2,5x,1,2,3,4,7,
3,6,4>1[16:4],7,
5,7,4x,8,7,6,5,2,
7,2,8-5[16:4],3,
1,3,8x,4,3,2,1,6,
2,7,1-4[16:4],6,
8,6,1x,5,6,7,8,3,
2/4h[8:3],,,,,,3h[8:3],,
,,,,6h[8:6],,,,
,,,,,,,,
4h[8:3],,,,,,2h[8:3],,
,,,,8bh[32:22],,,,
,,,,,,,E7,
(45)
,
(50)B6,
(45),B5,E5,
(65),E3,
(55),B3,,,B4,,,E5,,
(51),,,C,,,
(65),,,E1,,,,,,,
